<?xml version="1.0" standalone="no"?>
<!DOCTYPE svg PUBLIC "-//W3C//DTD SVG 1.1//EN" "http://www.w3.org/Graphics/SVG/1.1/DTD/svg11.dtd">
<svg xmlns="http://www.w3.org/2000/svg">
<defs >
<font id="BarlowCondensed" horiz-adv-x="389" ><font-face
    font-family="Barlow Condensed Light"
    units-per-em="1000"
    panose-1="0 0 4 6 0 0 0 0 0 0"
    ascent="1000"
    descent="-200"
    alphabetic="0" />
<glyph unicode=" " glyph-name="space" horiz-adv-x="200" />
<glyph unicode="!" glyph-name="exclam" horiz-adv-x="244" d="M101 225T101 235L97 690Q97 700 107 700H140Q150 700 150 690L145 235Q145 225 135 225H111Q101 225 101 235ZM100 4T86 18T72 54Q72 76 86 90T122 104Q144 104 158 90T172 54Q172 32 158 18T122
4Q100 4 86 18Z" />
<glyph unicode="&quot;" glyph-name="quotedbl" horiz-adv-x="206" d="M30 493T30 503L24 683Q24 693 34 693H68Q78 693 78 683L72 503Q72 493 62 493H40Q30 493 30 503ZM132 493T132 503L127 683Q127 693 137 693H170Q180 693 180 683L174 503Q174 493 164 493H142Q132
493 132 503Z" />
<glyph unicode="#" glyph-name="numbersign" horiz-adv-x="582" d="M521 436T511 436H449Q444 436 444 432L418 257Q418 253 421 253H479Q489 253 489 243V216Q489 206 479 206H415Q410 206 410 202L383 23Q382 14 373 14L340 15Q336 15 333 18T331 26L356 202Q356
206 353 206H192Q187 206 187 202L160 23Q159 14 150 14L117 15Q113 15 110 18T108 26L133 202Q133 206 130 206H71Q61 206 61 216V243Q61 253 71 253H137Q142 253 142 257L167 432Q167 436 164 436H103Q93 436 93 446V473Q93 483 103 483H171Q176 483 176 487L203
667Q204 676 213 676L246 674Q251 674 253 671T255 664L230 487Q230 483 233 483H394Q399 483 399 487L426 667Q427 676 436 676L469 674Q474 674 476 671T478 664L453 487Q453 483 456 483H511Q521 483 521 473V446Q521 436 511 436ZM365 253T365 257L390 432Q390
436 387 436H226Q221 436 221 432L195 257Q195 253 198 253H360Q365 253 365 257Z" />
<glyph unicode="$" glyph-name="dollar" horiz-adv-x="409" d="M364 100T330 53T237 -5Q233 -6 233 -10V-82Q233 -92 223 -92H201Q191 -92 191 -82L192 -12Q192 -8 188 -8Q123 -2 84 45T45 167V188Q45 198 55 198H87Q97 198 97 188V169Q97 110 126 74T203 38Q250
38 281 73T312 164Q312 201 298 228T261 274T187 333Q135 372 108 397T62 458T44 543Q44 615 82 659T184 708Q188 708 188 712L187 788Q187 798 197 798H219Q229 798 229 788V709Q229 705 233 704Q291 693 325 647T359 530V505Q359 495 349 495H316Q306 495 306
505V530Q306 589 277 625T198 662Q154 662 125 631T96 542Q96 508 108 483T144 436T216 378Q275 334 304 307T348 248T364 171Q364 100 330 53Z" />
<glyph unicode="%" glyph-name="percent" horiz-adv-x="785" d="M178 433T147 451T97 502T79 572Q79 609 97 641T146 691T215 710Q252 710 283 692T332 641T350 572Q350 534 332 502T283 452T215 433Q178 433 147 451ZM190 0T188 3T188 12L555 693Q558 700 567
700H588Q594 700 596 697T596 688L229 7Q226 0 217 0H196Q190 0 188 3ZM256 467T285 497T314 572Q314 615 285 645T215 675Q173 675 144 645T115 572Q115 528 144 498T215 467Q256 467 285 497ZM535 -10T504 8T454 59T436 129Q436 167 454 198T503 248T572 267Q608
267 639 249T688 198T706 129Q706 91 688 59T639 9T572 -10Q535 -10 504 8ZM613 25T642 55T671 129Q671 172 642 202T572 233Q529 233 500 203T471 129Q471 85 500 55T572 25Q613 25 642 55Z" />
<glyph unicode="&amp;" glyph-name="ampersand" horiz-adv-x="527" d="M476 7Q476 0 467 0H433Q425 0 421 6L407 27L373 76Q370 81 367 76Q329 32 291 12T204 -8Q130 -8 87 33T44 152Q44 220 76 270T167 371Q170 372 168 376Q131 433 114 463T92 514T86 561Q86
628 123 668T221 708Q281 708 319 668T358 563Q358 502 327 458T238 363Q235 362 237 358L302 261L368 165Q369 164 371 164T374 165Q385 183 423 248Q425 252 429 253T437 252L461 238Q469 233 464 224Q433 168 402 122Q401 119 402 116L474 12L476 7ZM185 659T162
632T139 559Q139 529 150 501T204 408Q206 404 209 407Q256 448 280 483T305 563Q305 606 282 632T222 659Q185 659 162 632ZM246 39T277 58T341 118Q343 121 341 124L315 161L290 198L202 326Q201 331 197 327Q149 282 123 243T97 153Q97 100 126 70T209 39Q246
39 277 58Z" />
<glyph unicode="&apos;" glyph-name="quotesingle" horiz-adv-x="106" d="M30 498T30 508L24 688Q24 698 34 698H70Q80 698 80 688L73 508Q73 498 63 498H40Q30 498 30 508Z" />
<glyph unicode="(" glyph-name="parenleft" horiz-adv-x="199" d="M82 -107T78 -100Q42 -25 19 88T-4 323Q-4 449 19 565T81 757Q85 764 93 764H123Q128 764 130 761T131 753Q99 675 78 560T57 325Q57 206 78 94T131 -96Q132 -97 132 -100Q132 -103 130 -105T123
-107H90Q82 -107 78 -100Z" />
<glyph unicode=")" glyph-name="parenright" horiz-adv-x="199" d="M116 764T120 757Q156 683 179 569T202 334Q202 209 179 92T118 -100Q114 -107 106 -107H75Q70 -107 68 -104T67 -96Q100 -19 121 96T142 332Q142 451 121 564T67 752L66 756Q66 764 75 764H108Q116
764 120 757Z" />
<glyph unicode="*" glyph-name="asterisk" horiz-adv-x="360" d="M162 394T162 404V532Q162 534 161 535T157 535L51 469L46 467Q41 467 37 473L29 487Q27 491 27 493Q27 499 32 501L140 567Q142 568 142 570T140 573L32 639Q24 644 29 653L37 667Q43 677 51 671L157
605Q159 604 160 605T162 608V737Q162 747 172 747H189Q199 747 199 737V608Q199 606 201 605T204 605L309 671L314 673Q319 673 323 667L331 653Q333 649 333 647Q333 642 328 639L221 573Q220 572 220 570T221 567L328 501Q336 496 331 487L323 473Q317 463 309
469L204 535Q203 536 201 535T199 532V404Q199 394 189 394H172Q162 394 162 404Z" />
<glyph unicode="+" glyph-name="plus" horiz-adv-x="443" d="M408 342T408 332V309Q408 299 398 299H246Q242 299 242 295V144Q242 134 232 134H210Q200 134 200 144V295Q200 299 196 299H44Q34 299 34 309V332Q34 342 44 342H196Q200 342 200 346V498Q200 508
210 508H232Q242 508 242 498V346Q242 342 246 342H398Q408 342 408 332Z" />
<glyph unicode="," glyph-name="comma" horiz-adv-x="169" d="M46 -74T43 -71T41 -63L75 145Q77 154 85 154H113Q118 154 120 151T122 143L80 -65Q79 -74 69 -74H50Q46 -74 43 -71Z" />
<glyph unicode="-" glyph-name="hyphen" horiz-adv-x="309" d="M34 291T34 301V328Q34 338 44 338H265Q275 338 275 328V301Q275 291 265 291H44Q34 291 34 301Z" />
<glyph unicode="." glyph-name="period" horiz-adv-x="181" d="M68 4T54 18T40 54Q40 76 54 90T90 104Q112 104 126 90T140 54Q140 32 126 18T90 4Q68 4 54 18Z" />
<glyph unicode="/" glyph-name="slash" horiz-adv-x="313" d="M24 0T27 11L197 691Q199 700 208 700H241Q252 700 249 689L79 9Q78 0 68 0H35Q24 0 27 11Z" />
<glyph unicode="0" glyph-name="zero" horiz-adv-x="442" d="M147 -10T102 38T57 164V536Q57 614 102 662T220 710Q294 710 339 662T384 536V164Q384 86 339 38T220 -10Q147 -10 102 38ZM270 38T300 71T331 160V540Q331 595 301 628T220 662Q171 662 141 629T110
540V160Q110 105 140 72T220 38Q270 38 300 71Z" />
<glyph unicode="1" glyph-name="one" horiz-adv-x="249" d="M131 700T138 700H174Q184 700 184 690V10Q184 0 174 0H141Q131 0 131 10V633Q131 635 130 636T126 636L29 597L25 596Q19 596 17 604L12 627V629Q12 637 18 640L125 697Q131 700 138 700Z" />
<glyph unicode="2" glyph-name="two" horiz-adv-x="392" d="M108 50T109 49T112 47H352Q362 47 362 37V10Q362 0 352 0H53Q43 0 43 10V40Q43 47 46 53Q54 67 59 74Q84 115 134 198T220 344Q286 462 286 537Q286 593 260 627T190 661Q147 661 122 628T97 538V502Q97
492 87 492H52Q42 492 42 502V540Q44 615 85 661T191 708Q258 708 299 661T340 537Q340 446 268 321Q240 271 180 173L109 52Q108 50 109 49Z" />
<glyph unicode="3" glyph-name="three" horiz-adv-x="401" d="M343 284T343 209Q343 153 332 109Q302 -8 192 -8Q134 -8 97 24T48 117Q41 155 40 198Q40 208 50 208H83Q93 208 93 198Q95 154 100 127Q120 39 192 39Q261 39 282 118Q291 159 291 213Q291 284 277
326Q254 395 192 395Q179 395 171 391Q167 389 164 389T157 393L141 410Q136 417 140 424L275 648Q276 650 275 651T272 653H54Q44 653 44 663V690Q44 700 54 700H331Q341 700 341 690V660Q341 653 338 647L210 436Q209 434 209 433T212 431Q253 429 282 403T325
333Q343 284 343 209Z" />
<glyph unicode="4" glyph-name="four" horiz-adv-x="397" d="M373 243T373 233V205Q373 195 363 195H333Q329 195 329 191V10Q329 0 319 0H286Q276 0 276 10V191Q276 195 272 195H34Q24 195 24 205V231Q24 235 26 243L180 692Q183 700 192 700H228Q239 700 236
689L86 248Q85 246 86 245T89 243H272Q276 243 276 247V413Q276 423 286 423H319Q329 423 329 413V247Q329 243 333 243H363Q373 243 373 233Z" />
<glyph unicode="5" glyph-name="five" horiz-adv-x="401" d="M361 274T361 212Q361 160 354 124Q343 60 306 26T209 -8Q149 -8 112 26T63 127Q61 137 59 157Q59 167 69 167H102Q112 167 112 157L116 131Q134 39 209 39Q280 39 300 126Q308 159 308 212Q308 267
297 308Q276 384 209 384Q133 384 113 307Q110 298 102 298H68Q58 298 58 308V690Q58 700 68 700H332Q342 700 342 690V663Q342 653 332 653H115Q111 653 111 649V381Q111 378 112 378T116 380Q132 405 159 418T221 431Q271 431 303 402T349 317Q361 274 361 212Z"
/>
<glyph unicode="6" glyph-name="six" horiz-adv-x="402" d="M362 270T362 212Q362 174 357 134Q347 65 310 29T210 -8Q152 -8 115 25T67 125Q59 157 59 210L58 539Q58 615 100 661T210 708Q272 708 311 662T351 539V528Q351 518 341 518H308Q298 518 298 528V539Q298
592 273 626T210 660Q166 660 139 627T112 539V385Q112 382 113 382T117 384Q132 409 157 422T212 436Q268 436 304 403T352 309Q362 270 362 212ZM309 179T309 215Q309 261 299 308Q280 389 210 389Q140 389 120 303Q112 267 112 215Q112 171 118 133Q136 39 210
39Q286 39 304 139Q309 179 309 215Z" />
<glyph unicode="7" glyph-name="seven" horiz-adv-x="355" d="M111 0T109 3T107 11L280 649Q281 650 280 651T276 653H75Q71 653 71 649V607Q71 597 61 597H36Q26 597 26 607V690Q26 700 36 700H327Q337 700 337 690V659Q337 657 335 647L163 9Q161 0 152 0H116Q111
0 109 3Z" />
<glyph unicode="8" glyph-name="eight" horiz-adv-x="418" d="M278 373T283 370Q318 351 337 313Q360 265 360 193Q360 141 347 97Q330 47 294 20T208 -8Q159 -8 124 19T71 97Q57 141 57 194Q57 257 77 305Q94 350 133 370Q137 373 133 376Q100 394 81 428Q57
473 57 533Q57 594 80 637Q98 672 131 690T208 709Q251 709 283 691T335 639Q360 598 360 532Q360 470 338 430Q317 393 283 376Q278 373 283 370ZM110 478T128 445Q153 396 208 396Q267 396 292 450Q308 484 308 530Q308 582 288 614Q263 662 208 662Q152 662
127 611Q110 577 110 528Q110 478 128 445ZM307 152T307 195Q307 251 291 291Q267 351 208 351Q178 351 157 335T124 286Q110 250 110 196Q110 149 120 116Q131 79 153 59T208 39Q241 39 264 60T298 120Q307 152 307 195Z" />
<glyph unicode="9" glyph-name="nine" horiz-adv-x="395" d="M336 537T336 490V161Q336 85 295 39T185 -8Q123 -8 83 38T43 161V172Q43 182 53 182H86Q96 182 96 172V161Q96 108 122 74T185 40Q229 40 256 73T283 161V315Q283 318 282 318T278 316Q263 291 238
278T183 264Q127 264 91 297T42 391Q33 432 33 488Q33 536 38 566Q47 635 85 671T185 708Q243 708 280 675T328 575Q336 537 336 490ZM255 311T275 397Q283 433 283 485Q283 530 277 567Q257 661 185 661Q109 661 91 561Q86 521 86 485Q86 432 96 392Q116 311 185
311Q255 311 275 397Z" />
<glyph unicode=":" glyph-name="colon" horiz-adv-x="194" d="M75 344T61 358T47 394Q47 416 61 430T97 444Q119 444 133 430T147 394Q147 372 133 358T97 344Q75 344 61 358ZM75 5T61 19T47 55Q47 77 61 91T97 105Q119 105 133 91T147 55Q147 33 133 19T97 5Q75
5 61 19Z" />
<glyph unicode=";" glyph-name="semicolon" horiz-adv-x="183" d="M72 355T58 370T44 408Q44 429 58 444T92 460Q110 460 124 445T139 408Q139 386 125 371T92 355Q72 355 58 370ZM52 -70T49 -67T47 -59L68 140Q69 149 78 149H108Q112 149 115 146T117 138L86
-61Q85 -70 76 -70H57Q52 -70 49 -67Z" />
<glyph unicode="&lt;" glyph-name="less" horiz-adv-x="443" d="M408 68T405 66T396 66L41 244Q34 247 34 256V289Q34 298 41 301L396 479L401 481Q404 481 406 479T408 472V440Q408 432 401 428L90 276Q86 273 90 270L401 117Q408 113 408 105V73Q408 68 405 66Z" />
<glyph unicode="=" glyph-name="equal" horiz-adv-x="443" d="M34 417T34 427V450Q34 460 44 460H398Q408 460 408 450V427Q408 417 398 417H44Q34 417 34 427ZM34 462T34 472V495Q34 505 44 505H398Q408 505 408 495V472Q408 462 398 462H44Q34 462 34 472Z" />
<glyph unicode="&gt;" glyph-name="greater" horiz-adv-x="443" d="M41 64Q38 64 36 66T34 73V105Q34 113 41 117L353 270Q358 273 353 276L41 428Q34 432 34 440V472Q34 477 37 479T46 479L401 301Q408 298 408 289V256Q408 247 401 244L46 66L41 64Z" />
<glyph unicode="?" glyph-name="question" horiz-adv-x="352" d="M135 195T135 205V270Q135 311 150 337T198 397Q232 432 249 461T266 539Q266 594 242 627T177 660Q134 660 109 627T83 538V504Q83 494 73 494L40 496Q30 496 30 506V538Q30 614 71 661T177 709Q242
709 280 663T319 538Q319 475 299 438T241 364Q214 335 202 316T189 267V205Q189 195 179 195H145Q135 195 135 205ZM141 3T127 17T113 53Q113 75 127 89T163 103Q185 103 199 89T213 53Q213 31 199 17T163 3Q141 3 127 17Z" />
<glyph unicode="@" glyph-name="at" horiz-adv-x="763" d="M508 606T572 572T672 476T708 329Q708 311 704 275Q692 182 647 130T533 78Q466 78 440 126Q437 131 434 126Q420 101 397 89T348 76Q306 76 279 102T252 170Q252 192 259 230L263 260L267 296Q271 325
272 335Q279 383 308 411T382 440Q400 440 417 433T446 410Q448 408 449 408T451 411L453 426Q454 435 463 435H484Q489 435 492 432T494 424L467 213Q466 207 466 196Q466 159 485 138T540 116Q587 116 619 157T661 274Q664 300 664 324Q664 398 634 453T547 538T417
568Q338 568 270 529T156 418T99 254Q96 229 96 205Q96 127 127 70T212 -19T336 -50Q386 -50 429 -37T499 -3Q502 0 506 0Q510 0 513 -5L523 -19Q525 -22 525 -26Q525 -30 521 -33Q490 -57 439 -73T328 -89Q248 -89 186 -54T89 47T54 200Q54 218 58 256Q71 358
123 437T254 561T423 606Q508 606 572 572ZM379 113T398 132T423 185L425 199L426 208L443 343Q443 371 428 387T387 404Q359 404 339 385T313 333Q305 273 304 258Q300 224 297 208L294 185Q291 152 306 133T351 113Q379 113 398 132Z" />
<glyph unicode="A" glyph-name="A" horiz-adv-x="391" d="M327 0T325 9L298 140Q298 142 297 143T293 144H97Q95 144 94 143T92 140L65 9Q64 0 54 0H21Q16 0 14 3T12 11L164 691Q166 700 175 700H215Q225 700 226 691L379 11V9Q379 0 370 0H336Q327 0 325 9ZM103
188T106 188H283Q286 188 286 192L197 615Q196 618 195 618T193 615L103 192Q103 188 106 188Z" />
<glyph unicode="B" glyph-name="B" horiz-adv-x="443" d="M407 99T360 50T232 0H89Q79 0 79 10V690Q79 700 89 700H226Q309 700 356 653T403 519Q403 404 317 364Q315 363 315 362T315 360Q359 338 382 295T406 189Q407 99 360 50ZM132 653T132 649V387Q132 383
136 383H227Q286 383 318 418T351 516Q351 581 318 617T227 653H136Q132 653 132 649ZM288 48T320 86T353 193Q353 263 320 302T229 341H136Q132 341 132 337V52Q132 48 136 48H229Q288 48 320 86Z" />
<glyph unicode="C" glyph-name="C" horiz-adv-x="441" d="M150 -8T106 37T61 159V543Q61 618 105 663T223 708Q297 708 341 663T386 543V524Q386 519 383 516T376 513L343 511Q333 511 333 521V546Q333 598 303 629T223 661Q174 661 144 630T114 546V155Q114 103
144 71T223 39Q272 39 302 71T333 155V178Q333 188 343 188L376 186Q386 186 386 176V159Q386 83 342 38T223 -8Q150 -8 106 37Z" />
<glyph unicode="D" glyph-name="D" horiz-adv-x="463" d="M79 0T79 10V690Q79 700 89 700H236Q310 700 353 651T396 516V184Q396 99 353 50T236 0H89Q79 0 79 10ZM132 47T136 47H236Q285 48 313 84T342 185V514Q342 579 314 616T235 653H136Q132 653 132 649V51Q132
47 136 47Z" />
<glyph unicode="E" glyph-name="E" horiz-adv-x="427" d="M383 653T373 653H136Q132 653 132 649V378Q132 374 136 374H288Q298 374 298 364V337Q298 327 288 327H136Q132 327 132 323V51Q132 47 136 47H373Q383 47 383 37V10Q383 0 373 0H89Q79 0 79 10V690Q79
700 89 700H373Q383 700 383 690V663Q383 653 373 653Z" />
<glyph unicode="F" glyph-name="F" horiz-adv-x="399" d="M381 653T371 653H136Q132 653 132 649V378Q132 374 136 374H287Q297 374 297 364V337Q297 327 287 327H136Q132 327 132 323V10Q132 0 122 0H89Q79 0 79 10V690Q79 700 89 700H371Q381 700 381 690V663Q381
653 371 653Z" />
<glyph unicode="G" glyph-name="G" horiz-adv-x="447" d="M150 -8T106 36T61 154V546Q61 619 105 663T223 708Q296 708 341 664T386 546V502Q386 492 376 492H343Q333 492 333 502V547Q333 599 303 630T223 661Q173 661 143 630T113 547V153Q113 101 143 70T223
39Q273 39 303 70T333 153V294Q333 298 329 298H235Q225 298 225 308V335Q225 345 235 345H376Q386 345 386 335V154Q386 81 341 37T223 -8Q150 -8 106 36Z" />
<glyph unicode="H" glyph-name="H" horiz-adv-x="470" d="M338 700T348 700H381Q391 700 391 690V10Q391 0 381 0H348Q338 0 338 10V323Q338 327 334 327H136Q132 327 132 323V10Q132 0 122 0H89Q79 0 79 10V690Q79 700 89 700H122Q132 700 132 690V378Q132 374
136 374H334Q338 374 338 378V690Q338 700 348 700Z" />
<glyph unicode="I" glyph-name="I" horiz-adv-x="211" d="M79 0T79 10V690Q79 700 89 700H122Q132 700 132 690V10Q132 0 122 0H89Q79 0 79 10Z" />
<glyph unicode="J" glyph-name="J" horiz-adv-x="419" d="M111 -8T68 37T24 156V244Q24 254 34 254H67Q77 254 77 244V155Q77 103 106 71T182 39Q229 39 258 71T287 155V690Q287 700 297 700H330Q340 700 340 690V156Q340 82 297 37T182 -8Q111 -8 68 37Z" />
<glyph unicode="K" glyph-name="K" horiz-adv-x="442" d="M79 0T79 10V690Q79 700 89 700H122Q132 700 132 690V347Q132 344 134 344T137 346L346 693Q351 700 358 700H396Q402 700 404 697T403 688L245 422Q242 419 244 416L419 12L420 8Q420 0 411 0H373Q365
0 362 8L208 368Q207 372 203 368L133 261Q132 260 132 256V10Q132 0 122 0H89Q79 0 79 10Z" />
<glyph unicode="L" glyph-name="L" horiz-adv-x="388" d="M79 0T79 10V690Q79 700 89 700H122Q132 700 132 690V51Q132 47 136 47H370Q380 47 380 37V10Q380 0 370 0H89Q79 0 79 10Z" />
<glyph unicode="M" glyph-name="M" horiz-adv-x="514" d="M384 700T392 700H426Q436 700 436 690V10Q436 0 426 0H393Q383 0 383 10V577Q383 580 381 580T378 578L268 334Q265 326 258 326Q250 326 247 333L136 576Q134 578 133 578T131 575V10Q131 0 121 0H88Q78
0 78 10V690Q78 700 88 700H122Q130 700 133 693L255 431Q256 429 258 429T261 431L381 693Q384 700 392 700Z" />
<glyph unicode="N" glyph-name="N" horiz-adv-x="488" d="M357 700T367 700H399Q409 700 409 690V10Q409 0 399 0H360Q352 0 349 8L136 568Q135 571 133 571T131 567L132 10Q132 0 122 0H89Q79 0 79 10V690Q79 700 89 700H127Q135 700 138 692L352 135Q353 132
355 132T357 136V690Q357 700 367 700Z" />
<glyph unicode="O" glyph-name="O" horiz-adv-x="451" d="M152 -8T107 38T61 160V539Q61 615 106 661T225 708Q299 708 345 662T391 539V160Q391 85 345 39T225 -8Q152 -8 107 38ZM275 39T306 72T338 158V541Q338 594 307 627T225 661Q176 661 145 628T114 541V158Q114
105 145 72T225 39Q275 39 306 72Z" />
<glyph unicode="P" glyph-name="P" horiz-adv-x="436" d="M314 702T357 650T400 512Q400 427 358 376T246 325H135Q131 325 131 321V10Q131 0 121 0H88Q78 0 78 10V692Q78 702 88 702H244Q314 702 357 650ZM287 369T317 408T347 511Q347 576 317 615T238 654H135Q131
654 131 650V373Q131 369 135 369H238Q287 369 317 408Z" />
<glyph unicode="Q" glyph-name="Q" horiz-adv-x="439" d="M291 708T334 661T378 537V163Q378 95 344 50T250 -5Q246 -6 246 -10V-110Q246 -120 236 -120H202Q192 -120 192 -110V-10Q192 -6 188 -5Q130 6 96 50T61 163V537Q61 613 105 660T220 708Q291 708 334
661ZM325 542Q325 595 296 628T220 661Q173 661 144 628T114 542V158Q114 105 143 72T220 39Q266 39 295 72T325 158V542Z" />
<glyph unicode="R" glyph-name="R" horiz-adv-x="436" d="M352 0T349 8L239 325Q238 328 235 328H136Q132 328 132 324V10Q132 0 122 0H89Q79 0 79 10V690Q79 700 89 700H244Q314 700 357 648T400 512Q400 445 371 398T292 334Q288 333 289 329L402 11L403 7Q403
0 394 0H361Q352 0 349 8ZM132 653T132 649V376Q132 372 136 372H238Q287 372 317 410T347 512Q347 576 317 614T238 653H136Q132 653 132 649Z" />
<glyph unicode="S" glyph-name="S" horiz-adv-x="409" d="M133 -8T89 40T45 167V188Q45 198 55 198H87Q97 198 97 188V169Q97 110 126 74T203 38Q250 38 281 73T312 164Q312 201 298 228T261 274T187 333Q135 372 108 397T62 458T44 543Q44 620 87 664T198 708Q271
708 315 659T359 530V505Q359 495 349 495H316Q306 495 306 505V530Q306 589 277 625T198 662Q154 662 125 631T96 542Q96 508 108 483T144 436T216 378Q275 334 304 307T348 248T364 171Q364 89 320 41T204 -8Q133 -8 89 40Z" />
<glyph unicode="T" glyph-name="T" horiz-adv-x="411" d="M375 700T375 690V663Q375 653 365 653H232Q228 653 228 649V10Q228 0 218 0H185Q175 0 175 10V649Q175 653 171 653H46Q36 653 36 663V690Q36 700 46 700H365Q375 700 375 690Z" />
<glyph unicode="U" glyph-name="U" horiz-adv-x="475" d="M163 -8T118 43T73 181V690Q73 700 83 700H116Q126 700 126 690V175Q126 114 156 77T237 39Q287 39 318 76T350 175V690Q350 700 360 700H393Q403 700 403 690V181Q403 96 357 44T237 -8Q163 -8 118 43Z" />
<glyph unicode="V" glyph-name="V" horiz-adv-x="427" d="M186 0T184 9L38 689V691Q38 700 47 700H84Q94 700 95 691L213 103Q214 100 215 100T217 103L333 691Q335 700 344 700H379Q390 700 388 689L243 9Q242 0 232 0H195Q186 0 184 9Z" />
<glyph unicode="W" glyph-name="W" horiz-adv-x="606" d="M164 0T162 9L31 689V691Q31 700 40 700H75Q85 700 86 691L189 124Q190 122 191 122T193 124L280 691Q281 700 290 700H321Q330 700 331 691L423 124Q424 122 425 122T427 124L521 691Q523 700 531 700H566Q571
700 573 697T575 689L451 9Q450 0 440 0H408Q400 0 398 9L308 575Q307 577 306 577T304 575L215 9Q214 0 205 0H173Q164 0 162 9Z" />
<glyph unicode="X" glyph-name="X" horiz-adv-x="423" d="M44 0T42 3T41 12L183 347Q185 350 183 353L41 688L40 692Q40 700 49 700H85Q93 700 96 692L209 407Q210 404 212 404T215 407L328 692Q331 700 339 700H374Q379 700 381 697T382 688L240 352Q239 349
240 346L382 12L383 8Q383 0 374 0H339Q331 0 328 8L215 292Q214 295 212 295T209 292L95 8Q92 0 84 0H49Q44 0 42 3Z" />
<glyph unicode="Y" glyph-name="Y" horiz-adv-x="411" d="M179 0T179 10V320Q179 324 178 325L40 688L39 692Q39 700 48 700H83Q92 700 95 692L203 386Q204 384 206 384T209 386L316 692Q319 700 328 700H363Q368 700 370 697T371 688L233 325Q232 324 232 320V10Q232
0 222 0H189Q179 0 179 10Z" />
<glyph unicode="Z" glyph-name="Z" horiz-adv-x="391" d="M36 0T36 10V41Q36 48 38 53L290 648Q291 650 290 651T287 653H46Q36 653 36 663V690Q36 700 46 700H338Q348 700 348 690V659Q348 652 346 647L95 52Q94 50 95 49T98 47H338Q348 47 348 37V10Q348 0 338
0H46Q36 0 36 10Z" />
<glyph unicode="[" glyph-name="bracketleft" horiz-adv-x="292" d="M25 -114T25 -104V758Q25 768 35 768H177Q187 768 187 758V730Q187 720 177 720H82Q78 720 78 716V-63Q78 -67 82 -67H178Q188 -67 188 -77V-104Q188 -114 178 -114H35Q25 -114 25 -104Z" />
<glyph unicode="\" glyph-name="backslash" horiz-adv-x="313" d="M287 7Q287 0 278 0H245Q236 0 234 9L64 689L63 693Q63 700 72 700H105Q115 700 116 691L286 11L287 7Z" />
<glyph unicode="]" glyph-name="bracketright" horiz-adv-x="292" d="M267 -114T257 -114H114Q104 -114 104 -104V-77Q104 -67 114 -67H210Q214 -67 214 -63V716Q214 720 210 720H114Q104 720 104 730V758Q104 768 114 768H257Q267 768 267 758V-104Q267 -114 257 -114Z" />
<glyph unicode="^" glyph-name="asciicircum" horiz-adv-x="390" d="M35 310T38 321L167 692Q170 700 179 700H210Q219 700 222 692L351 321L352 317Q352 310 343 310H317Q308 310 305 318L198 637Q197 639 195 639T192 637L84 318Q81 310 72 310H46Q35 310 38 321Z" />
<glyph unicode="_" glyph-name="underscore" horiz-adv-x="365" d="M24 0T24 10V34Q24 44 34 44H331Q341 44 341 34V10Q341 0 331 0H34Q24 0 24 10Z" />
<glyph unicode="`" glyph-name="grave" horiz-adv-x="170" d="M141 579T141 577Q141 571 132 571H111Q104 571 99 578L31 688Q29 692 29 694Q29 700 38 700H65Q72 700 77 693L139 583Q141 579 141 577Z" />
<glyph unicode="a" glyph-name="a" horiz-adv-x="404" d="M272 512T310 467T349 345V10Q349 0 339 0H306Q296 0 296 10V46Q296 49 295 49T291 48Q254 -8 175 -8Q122 -8 83 23T44 132Q44 215 90 254T214 293H292Q296 293 296 297V343Q296 399 271 432T202 465Q168
465 143 443T113 386Q113 376 103 376L67 378Q62 378 60 381T58 388Q64 444 105 478T204 512Q272 512 310 467ZM231 39T263 68T296 150V245Q296 249 292 249H214Q162 249 131 221T99 136Q99 87 123 63T186 39Q231 39 263 68Z" />
<glyph unicode="b" glyph-name="b" horiz-adv-x="417" d="M287 512T324 471T362 362V141Q362 75 325 34T225 -8Q195 -8 169 4T125 39Q123 41 122 41T120 38V10Q120 0 110 0H77Q67 0 67 10V690Q67 700 77 700H110Q120 700 120 690V466Q120 464 122 464T125 465Q143
488 169 500T225 512Q287 512 324 471ZM310 406T283 435T213 465Q172 465 146 436T120 359V144Q120 97 146 68T213 39Q256 39 283 68T310 144V359Q310 406 283 435Z" />
<glyph unicode="c" glyph-name="c" horiz-adv-x="394" d="M136 -8T96 33T55 142V362Q55 428 96 470T203 512Q247 512 281 494T333 445T352 378V372Q352 362 342 362L309 360Q299 360 299 370V376Q299 412 272 438T203 465Q161 465 135 436T108 359V144Q108 98
134 69T203 39Q245 39 272 65T299 128V133Q299 143 309 143H342Q352 143 352 133V125Q352 89 334 59T281 10T203 -8Q136 -8 96 33Z" />
<glyph unicode="d" glyph-name="d" horiz-adv-x="417" d="M297 700T307 700H340Q350 700 350 690V10Q350 0 340 0H307Q297 0 297 10V38Q297 40 296 40T292 39Q274 16 248 4T192 -8Q130 -8 93 33T55 141V362Q55 429 92 470T192 512Q222 512 248 500T292 465Q294
463 295 463T297 466V690Q297 700 307 700ZM245 39T271 68T297 144V359Q297 406 271 435T204 465Q161 465 134 436T107 359V144Q107 98 134 69T204 39Q245 39 271 68Z" />
<glyph unicode="e" glyph-name="e" horiz-adv-x="400" d="M352 233T342 233H112Q108 233 108 229V144Q108 98 134 69T203 39Q238 39 263 60T296 115Q299 124 307 124L339 122Q343 122 346 120T348 114V110Q338 55 300 24T203 -8Q137 -8 96 33T55 141V362Q55 428
96 470T203 512Q270 512 311 470T352 362V243Q352 233 342 233ZM161 465T135 436T108 359V283Q108 279 112 279H295Q299 279 299 283V359Q299 406 273 435T203 465Q161 465 135 436Z" />
<glyph unicode="f" glyph-name="f" horiz-adv-x="272" d="M171 662T155 634T139 544V508Q139 504 143 504H225Q235 504 235 494V472Q235 462 225 462H143Q139 462 139 458V10Q139 0 129 0H96Q86 0 86 10V458Q86 462 82 462H40Q30 462 30 472V494Q30 504 40 504H82Q86
504 86 508V545Q86 629 115 668T213 708H228Q238 708 238 698L237 672Q237 662 227 662H214Q171 662 155 634Z" />
<glyph unicode="g" glyph-name="g" horiz-adv-x="406" d="M297 504T307 504H341Q351 504 351 494V6Q351 -97 304 -151T153 -201Q143 -201 143 -191V-164Q143 -154 156 -154Q232 -154 264 -113T297 10V48Q297 51 295 51T292 49Q275 22 249 9T190 -5Q128 -5 92 36T55
145V362Q55 429 91 470T190 512Q222 512 249 498T292 458Q294 456 295 456T297 459V494Q297 504 307 504ZM245 42T271 71T297 147V359Q297 406 271 435T204 465Q162 465 135 436T108 359V147Q108 101 135 72T204 42Q245 42 271 71Z" />
<glyph unicode="h" glyph-name="h" horiz-adv-x="418" d="M292 511T325 470T358 355V10Q358 0 348 0H315Q305 0 305 10V350Q305 404 281 434T214 464Q170 464 145 432T120 344V10Q120 0 110 0H77Q67 0 67 10V690Q67 700 77 700H110Q120 700 120 690V456Q120 453
121 453T125 455Q159 511 231 511Q292 511 325 470Z" />
<glyph unicode="i" glyph-name="i" horiz-adv-x="205" d="M80 605T66 619T52 655Q52 677 66 691T102 705Q124 705 138 691T152 655Q152 633 138 619T102 605Q80 605 66 619ZM76 0T76 10V494Q76 504 86 504H119Q129 504 129 494V10Q129 0 119 0H86Q76 0 76 10Z" />
<glyph unicode="j" glyph-name="j" horiz-adv-x="195" d="M71 605T57 619T43 655Q43 677 57 691T93 705Q115 705 129 691T143 655Q143 633 129 619T93 605Q71 605 57 619ZM-23 -209T-23 -199V-172Q-23 -162 -13 -162Q27 -160 47 -132T67 -55V494Q67 504 77 504H110Q120
504 120 494V-55Q120 -130 90 -169T-13 -209Q-23 -209 -23 -199Z" />
<glyph unicode="k" glyph-name="k" horiz-adv-x="394" d="M67 0T67 10V690Q67 700 77 700H110Q120 700 120 690V270Q120 268 122 268T125 269L290 498Q294 504 302 504H337Q343 504 345 501T343 492L246 356Q244 354 245 351L362 11L363 7Q363 0 354 0H319Q310
0 307 8L212 305Q211 311 206 306L122 190Q120 188 120 185V10Q120 0 110 0H77Q67 0 67 10Z" />
<glyph unicode="l" glyph-name="l" horiz-adv-x="174" d="M61 0T61 10V690Q61 700 71 700H104Q114 700 114 690V10Q114 0 104 0H71Q61 0 61 10Z" />
<glyph unicode="m" glyph-name="m" horiz-adv-x="641" d="M514 511T547 467T580 347V10Q580 0 570 0H537Q527 0 527 10V342Q527 398 504 431T441 464Q399 464 375 432T350 344V10Q350 0 340 0H307Q297 0 297 10V342Q297 398 273 431T211 464Q169 464 144 432T119
344V10Q119 0 109 0H77Q67 0 67 10V494Q67 504 77 504H109Q119 504 119 494V457Q119 454 121 454T124 456Q142 483 169 497T227 511Q265 511 293 491T336 434Q338 429 341 436Q358 473 389 492T457 511Q514 511 547 467Z" />
<glyph unicode="n" glyph-name="n" horiz-adv-x="418" d="M292 511T325 470T358 355V10Q358 0 348 0H315Q305 0 305 10V350Q305 404 281 434T214 464Q170 464 145 432T120 344V10Q120 0 110 0H77Q67 0 67 10V494Q67 504 77 504H110Q120 504 120 494V456Q120 453
121 453T125 455Q159 511 231 511Q292 511 325 470Z" />
<glyph unicode="o" glyph-name="o" horiz-adv-x="407" d="M136 -8T96 33T55 142V362Q55 428 96 470T203 512Q271 512 312 471T353 362V142Q353 75 312 34T203 -8Q136 -8 96 33ZM246 39T273 68T300 144V359Q300 406 273 435T203 465Q161 465 135 436T108 359V144Q108
98 134 69T203 39Q246 39 273 68Z" />
<glyph unicode="p" glyph-name="p" horiz-adv-x="423" d="M293 512T330 471T368 362V142Q368 75 331 34T231 -8Q201 -8 175 4T131 39Q129 41 128 41T126 38V-186Q126 -196 116 -196H83Q73 -196 73 -186V494Q73 504 83 504H116Q126 504 126 494V466Q126 464 128
464T131 465Q149 488 175 500T231 512Q293 512 330 471ZM316 406T289 435T219 465Q178 465 152 436T126 360V144Q126 97 152 68T219 39Q262 39 289 68T316 144V360Q316 406 289 435Z" />
<glyph unicode="q" glyph-name="q" horiz-adv-x="423" d="M297 504T307 504H340Q350 504 350 494V-186Q350 -196 340 -196H307Q297 -196 297 -186V38Q297 40 296 40T292 39Q274 16 248 4T192 -8Q130 -8 93 33T55 142V362Q55 429 92 470T192 512Q222 512 248 500T292
465Q294 463 295 463T297 466V494Q297 504 307 504ZM245 39T271 68T297 144V360Q297 407 271 436T204 465Q161 465 134 436T107 360V144Q107 98 134 69T204 39Q245 39 271 68Z" />
<glyph unicode="r" glyph-name="r" horiz-adv-x="284" d="M247 508T265 498Q272 494 270 485L262 451Q259 442 249 446Q233 452 210 451Q170 450 145 411T120 315V10Q120 0 110 0H77Q67 0 67 10V494Q67 504 77 504H110Q120 504 120 494V432Q120 429 122 429T125
432Q139 468 163 488T222 508Q247 508 265 498Z" />
<glyph unicode="s" glyph-name="s" horiz-adv-x="364" d="M125 -5T86 30T46 122V128Q46 138 56 138H87Q97 138 97 128V122Q97 86 123 62T190 38Q230 38 254 62T279 126Q279 155 265 174T230 204T173 231Q134 247 109 262T67 305T49 375Q49 436 87 472T188 508Q252
508 290 471T328 375V372Q328 362 318 362H288Q278 362 278 372V377Q278 414 253 439T188 464Q148 464 124 440T100 376Q100 349 113 331T145 302T200 275Q241 258 267 243T313 199T332 128Q332 68 293 32T190 -5Q125 -5 86 30Z" />
<glyph unicode="t" glyph-name="t" horiz-adv-x="261" d="M230 462T220 462H140Q136 462 136 458V136Q136 86 153 67T207 47H217Q227 47 227 37V10Q227 0 217 0H197Q141 0 113 26T84 123V458Q84 462 80 462H39Q29 462 29 472V494Q29 504 39 504H80Q84 504 84 508V620Q84
630 94 630H126Q136 630 136 620V508Q136 504 140 504H220Q230 504 230 494V472Q230 462 220 462Z" />
<glyph unicode="u" glyph-name="u" horiz-adv-x="418" d="M298 504T308 504H341Q351 504 351 494V10Q351 0 341 0H308Q298 0 298 10V46Q298 49 297 49T293 48Q261 -7 191 -7Q131 -7 96 29T61 139V494Q61 504 71 504H104Q114 504 114 494V151Q114 96 137 68T204
40Q248 40 273 72T298 160V494Q298 504 308 504Z" />
<glyph unicode="v" glyph-name="v" horiz-adv-x="364" d="M154 0T152 9L27 493L26 496Q26 504 36 504H74Q83 504 85 495L180 90Q181 87 182 87T184 90L279 495Q281 504 290 504L329 503Q334 503 336 500T337 492L214 9Q213 0 203 0H163Q154 0 152 9Z" />
<glyph unicode="w" glyph-name="w" horiz-adv-x="539" d="M133 0T131 9L26 493V495Q26 504 35 504H67Q77 504 78 495L158 87Q159 84 160 84T162 87L243 495Q245 504 254 504H283Q293 504 294 495L376 87Q377 84 378 84T380 87L462 495Q464 504 473 504L504 503Q509
503 511 500T513 492L406 9Q405 0 395 0H362Q353 0 351 9L270 402Q269 405 268 405T266 402L187 9Q186 0 176 0H142Q133 0 131 9Z" />
<glyph unicode="x" glyph-name="x" horiz-adv-x="359" d="M26 0T24 3T24 12L148 249Q150 252 148 255L24 492Q23 494 23 497Q23 504 31 504H69Q78 504 81 497L177 303Q178 301 180 301T183 303L279 497Q282 504 291 504H328Q333 504 335 501T335 492L212 255Q211
252 212 249L335 12Q336 10 336 7Q336 0 328 0H291Q282 0 279 7L183 201Q182 203 180 203T177 201L81 7Q78 0 69 0H31Q26 0 24 3Z" />
<glyph unicode="y" glyph-name="y" horiz-adv-x="353" d="M43 -200T41 -197T39 -190V-164Q39 -154 49 -154H50Q80 -153 96 -142T124 -99T149 -3Q150 -1 150 0T149 3L21 493L20 496Q20 504 30 504H65Q74 504 76 495L175 78Q176 75 177 75T179 78L277 495Q279 504
288 504L324 503Q329 503 331 500T332 492L191 -51Q174 -116 158 -147T117 -189T50 -200H45Q43 -200 41 -197Z" />
<glyph unicode="z" glyph-name="z" horiz-adv-x="357" d="M37 0T37 10V42Q37 48 40 55L257 450Q258 452 258 453T255 455H50Q40 455 40 465V494Q40 504 50 504H312Q322 504 322 494V462Q322 455 319 449L101 54Q100 52 100 51T103 49H312Q322 49 322 39V10Q322
0 312 0H47Q37 0 37 10Z" />
<glyph unicode="{" glyph-name="braceleft" horiz-adv-x="255" d="M128 -114T106 -88T83 -3V216Q83 258 71 280T34 307Q25 309 25 317V343Q25 352 34 353Q59 358 71 379T83 443V656Q83 714 105 741T177 768H219Q229 768 229 758V730Q229 720 219 720H192Q163 720
150 702T136 643V442Q136 397 125 371T90 333Q85 331 90 328Q113 315 124 289T136 218V10Q136 -30 149 -48T192 -67H219Q229 -67 229 -77V-104Q229 -114 219 -114H177Q128 -114 106 -88Z" />
<glyph unicode="|" glyph-name="bar" horiz-adv-x="133" d="M40 -80T40 -70V750Q40 760 50 760H83Q93 760 93 750V-70Q93 -80 83 -80H50Q40 -80 40 -70Z" />
<glyph unicode="}" glyph-name="braceright" horiz-adv-x="255" d="M35 -114Q25 -114 25 -104V-77Q25 -67 35 -67H63Q92 -67 105 -49T119 10V218Q119 262 130 288T164 328Q169 331 164 333Q141 345 130 371T119 442V643Q119 683 106 701T63 720H35Q25 720 25 730V758Q25
768 35 768H78Q127 768 149 741T172 656V443Q172 401 183 380T220 353Q229 352 229 343V317Q229 309 220 307Q195 302 184 280T172 216V-3Q172 -61 150 -87T78 -114H35Z" />
<glyph unicode="~" glyph-name="asciitilde" horiz-adv-x="454" d="M289 240T269 248T217 275Q198 287 182 293T146 300Q100 300 73 258Q68 248 59 254L42 265Q34 271 38 278Q53 310 80 329T143 348Q167 348 185 341T225 321Q252 304 271 296T317 288Q337 288
350 298T380 328Q387 337 394 331L411 319Q418 313 414 306Q375 240 318 240Q289 240 269 248Z" />
<glyph unicode="&#xa0;" glyph-name="uni00A0" horiz-adv-x="200" />
<glyph unicode="&#xa1;" glyph-name="exclamdown" horiz-adv-x="244" d="M144 708T158 694T172 658Q172 636 158 622T122 608Q100 608 86 622T72 658Q72 680 86 694T122 708Q144 708 158 694ZM101 487T111 487H135Q145 487 145 477L150 22Q150 12 140 12H107Q97
12 97 22L101 477Q101 487 111 487Z" />
<glyph unicode="&#xa2;" glyph-name="cent" horiz-adv-x="394" d="M352 452T342 452L309 450Q299 450 299 460V466Q299 502 272 528T203 555Q161 555 135 526T108 449V234Q108 188 134 159T203 129Q245 129 272 155T299 218V223Q299 233 309 233H342Q352 233 352
223V215Q352 165 319 128T229 83Q225 83 225 79L226 10Q226 0 216 0H189Q179 0 179 10L181 79Q181 83 177 84Q121 92 88 132T55 232V452Q55 511 88 551T177 600Q181 601 181 605L179 673Q179 683 189 683H216Q226 683 226 673L225 605Q225 601 229 600Q285 592
318 555T352 468V460Q352 452 342 452Z" />
<glyph unicode="&#xa3;" glyph-name="sterling" horiz-adv-x="499" d="M165 46T170 46H453Q463 46 463 36V10Q463 0 453 0H114Q104 0 104 10V38Q104 46 110 50Q130 66 141 100T152 178V310Q152 314 148 314H89Q79 314 79 324V348Q79 358 89 358H148Q152 358 152
362V517Q152 607 194 657T311 708Q365 708 401 676T453 580V578Q453 570 445 568L414 563H412Q404 563 402 572Q380 662 307 662Q258 662 231 625T203 519V362Q203 358 207 358H354Q364 358 364 348V324Q364 314 354 314H207Q203 314 203 310V180Q203 138 194 105T168
51Q165 46 170 46Z" />
<glyph unicode="&#xa4;" glyph-name="currency" horiz-adv-x="497" d="M438 236T399 186Q397 182 400 180L465 116Q468 113 468 110Q468 106 464 102L443 84Q440 81 437 81Q433 81 429 85L366 146Q363 149 360 147Q309 109 245 109Q182 109 133 144Q130 146 127
143L67 85Q60 78 53 84L33 102Q26 110 32 116L92 176Q95 179 93 182Q51 235 51 301Q51 365 91 416Q93 419 90 422L25 487Q22 490 22 493Q22 497 26 501L47 519Q50 522 54 522Q58 522 61 518L123 455Q126 452 129 454Q179 493 245 493Q313 493 364 451Q367 449 370
452L436 518Q439 521 443 521T450 519L470 501Q478 494 471 487L403 419Q400 416 402 413Q438 364 438 301Q438 236 399 186ZM99 262T118 229T171 176T245 156Q284 156 317 175T370 228T390 301Q390 340 371 373T318 427T245 447Q205 447 172 428T119 375T99 301Q99
262 118 229Z" />
<glyph unicode="&#xa5;" glyph-name="yen" horiz-adv-x="521" d="M437 307T427 307H288Q284 307 284 303V229Q284 225 288 225H427Q437 225 437 215V199Q437 189 427 189H288Q284 189 284 185V10Q284 0 274 0H241Q231 0 231 10V185Q231 189 227 189H93Q83 189
83 199V215Q83 225 93 225H227Q231 225 231 229V303Q231 307 227 307H93Q83 307 83 317V332Q83 342 93 342H219Q221 342 222 343T222 347L92 688L91 692Q91 700 100 700H134Q143 700 146 692L254 386Q255 384 257 384T260 386L368 692Q371 700 380 700H414Q419
700 421 697T422 688L293 347Q292 345 293 344T296 342H427Q437 342 437 332V317Q437 307 427 307Z" />
<glyph unicode="&#xa6;" glyph-name="brokenbar" horiz-adv-x="133" d="M40 385T40 395V750Q40 760 50 760H83Q93 760 93 750V395Q93 385 83 385H50Q40 385 40 395ZM40 -80T40 -70V277Q40 287 50 287H83Q93 287 93 277V-70Q93 -80 83 -80H50Q40 -80 40 -70Z" />
<glyph unicode="&#xa7;" glyph-name="section" horiz-adv-x="375" d="M126 -207T89 -164T51 -52V-38Q51 -28 61 -28H94Q104 -28 104 -38V-49Q105 -99 127 -129T187 -160Q224 -160 247 -129T271 -52Q271 -14 254 11T216 49T161 76Q122 93 99 110T61 160Q45 198
45 246Q45 295 69 340Q94 386 133 399Q138 401 133 404Q96 423 73 463T49 555Q49 622 87 665T186 708Q246 708 283 665T321 551V539Q321 529 311 529H277Q267 529 267 539V549Q267 599 245 630T185 661Q148 661 125 630T102 550Q102 500 127 471T207 420Q243 405
264 391T304 350Q330 307 330 252Q330 197 310 157Q286 108 242 95Q237 93 242 90Q278 71 301 35T324 -54Q324 -120 286 -163T187 -207Q126 -207 89 -164ZM214 127T232 139T263 178Q278 211 278 251Q278 295 255 329Q243 347 225 357T185 368Q159 368 140 353T112
315Q99 285 99 247Q99 208 112 177Q134 127 187 127Q214 127 232 139Z" />
<glyph unicode="&#xa8;" glyph-name="dieresis" horiz-adv-x="290" d="M194 605T180 619T166 655Q166 677 180 691T216 705Q238 705 252 691T266 655Q266 633 252 619T216 605Q194 605 180 619ZM53 605T39 619T25 655Q25 677 39 691T75 705Q97 705 111 691T125
655Q125 633 111 619T75 605Q53 605 39 619Z" />
<glyph unicode="&#xa9;" glyph-name="copyright" horiz-adv-x="846" d="M321 -8T239 39T109 169T61 349Q61 448 108 530T238 660T422 708Q524 708 607 661T737 531T785 349Q785 251 738 169T607 40T422 -8Q321 -8 239 39ZM513 28T587 70T704 187T747 349Q747 438
705 512T588 629T422 672Q332 672 258 629T141 512T98 349Q98 261 140 188T257 71T422 28Q513 28 587 70ZM386 181T364 202T341 258V436Q341 471 363 491T423 512Q461 512 484 491T507 436V429Q507 419 497 419L481 418Q471 418 471 428V438Q471 457 458 468T423
480Q401 480 388 469T375 438V256Q375 237 388 225T423 213Q445 213 458 225T471 256V266Q471 276 481 276L497 275Q507 275 507 265V258Q507 224 484 203T423 181Q386 181 364 202Z" />
<glyph unicode="&#xaa;" glyph-name="ordfeminine" horiz-adv-x="271" d="M186 561Q190 561 190 565V596Q190 631 175 652T130 673Q109 673 93 661T73 627Q71 616 62 618L41 620Q31 622 32 631Q37 665 64 686T130 708Q177 708 203 679T230 599V380Q230 370 220
370H200Q190 370 190 380V397Q190 399 189 400T185 399Q161 365 114 365Q77 365 51 385T24 459Q24 561 136 561H186ZM148 399T169 416T190 468V524Q190 528 186 528H137Q104 528 85 510T65 459Q65 428 80 414T120 399Q148 399 169 416ZM23 317T33 317H234Q244 317
244 307V288Q244 278 234 278H33Q23 278 23 288V307Q23 317 33 317Z" />
<glyph unicode="&#xab;" glyph-name="guillemotleft" horiz-adv-x="475" d="M244 117T244 113Q244 111 242 109T236 107H207Q199 107 195 113L81 274Q77 281 81 288L195 449Q199 455 207 455H236Q242 455 244 452T242 443L130 284Q129 281 130 278L242 119Q244
117 244 113ZM390 117T390 113Q390 111 388 109T382 107H353Q345 107 341 113L227 274Q223 281 227 288L341 449Q345 455 353 455H382Q388 455 390 452T388 443L275 284Q274 281 275 278L388 119Q390 117 390 113Z" />
<glyph unicode="&#xac;" glyph-name="logicalnot" horiz-adv-x="443" d="M408 340T408 330V303V297L407 295V190Q407 180 397 180H373Q363 180 363 190V293Q363 297 359 297H44Q34 297 34 307V330Q34 340 44 340H398Q408 340 408 330Z" />
<glyph unicode="&#xad;" glyph-name="uni00AD" horiz-adv-x="309" d="M34 291T34 301V328Q34 338 44 338H265Q275 338 275 328V301Q275 291 265 291H44Q34 291 34 301Z" />
<glyph unicode="&#xae;" glyph-name="registered" horiz-adv-x="439" d="M273 715T317 689T388 619T414 522Q414 469 388 425T318 355T219 329Q166 329 121 354T50 424T24 522Q24 575 50 619T121 689T219 715Q273 715 317 689ZM264 359T301 381T361 440T383 522Q383
566 361 603T302 662T219 684Q174 684 137 663T78 604T56 522Q56 478 77 441T136 381T219 359Q264 359 301 381ZM281 541T274 530T254 513Q251 511 252 507L278 444L279 440Q279 432 270 432H262Q254 432 251 440L224 505Q223 508 220 508H201Q197 508 197 504V442Q197
432 187 432H180Q170 432 170 442V600Q170 610 180 610H230Q252 610 266 595T281 557Q281 541 274 530ZM197 586T197 582V533Q197 529 201 529H227Q239 529 246 536T254 557Q254 570 247 578T227 586H201Q197 586 197 582Z" />
<glyph unicode="&#xaf;" glyph-name="overscore" horiz-adv-x="531" d="M165 599T165 609V629Q165 639 175 639H354Q364 639 364 629V609Q364 599 354 599H175Q165 599 165 609Z" />
<glyph unicode="&#xb0;" glyph-name="degree" horiz-adv-x="358" d="M137 494T101 515T45 572T24 651Q24 694 44 730T101 787T179 808Q221 808 257 787T313 730T334 651Q334 608 314 572T257 515T179 494Q137 494 101 515ZM227 533T260 567T294 651Q294 700 261
734T179 769Q131 769 98 735T64 651Q64 602 97 568T179 533Q227 533 260 567Z" />
<glyph unicode="&#xb1;" glyph-name="plusminus" horiz-adv-x="443" d="M408 362T408 352V329Q408 319 398 319H246Q242 319 242 315V164Q242 154 232 154H210Q200 154 200 164V315Q200 319 196 319H44Q34 319 34 329V352Q34 362 44 362H196Q200 362 200 366V518Q200
528 210 528H232Q242 528 242 518V366Q242 362 246 362H398Q408 362 408 352ZM34 32T34 42V65Q34 75 44 75H398Q408 75 408 65V42Q408 32 398 32H44Q34 32 34 42Z" />
<glyph unicode="&#xb2;" glyph-name="uni00B2" horiz-adv-x="239" d="M24 449T24 459V477Q24 485 28 490L87 586Q111 622 132 658Q169 723 169 769Q169 801 155 819T116 838Q93 838 79 820T64 770V751Q64 741 54 741H33Q23 741 23 751V771Q24 818 49 846T117 874Q159
874 184 846T210 767Q210 712 172 644Q142 589 80 489Q79 487 80 486T83 484H212Q222 484 222 474V459Q222 449 212 449H34Q24 449 24 459Z" />
<glyph unicode="&#xb3;" glyph-name="uni00B3" horiz-adv-x="258" d="M218 604T218 575Q218 535 208 509Q200 478 178 461T121 444Q83 444 57 468T26 531Q24 553 24 565Q24 575 34 575H54Q64 575 64 565Q64 554 66 540Q70 512 84 496T121 480Q157 480 171 519Q180
550 180 579Q180 610 174 632Q168 656 155 668T121 681Q116 681 110 679L104 678Q99 678 96 682L87 692Q82 699 86 706L166 829Q167 830 166 832T163 834H36Q26 834 26 844V859Q26 869 36 869H205Q215 869 215 859V841Q215 836 211 828L139 715Q138 713 138 712T141
710Q167 707 185 687T211 635Q218 604 218 575Z" />
<glyph unicode="&#xb4;" glyph-name="acute" horiz-adv-x="170" d="M32 571T30 574T31 583L93 693Q98 700 105 700H132Q138 700 140 697T139 688L70 578Q65 571 58 571H38Q32 571 30 574Z" />
<glyph unicode="&#xb5;" glyph-name="uni00B5" horiz-adv-x="424" d="M304 504T314 504H347Q357 504 357 494V10Q357 0 347 0H314Q304 0 304 10V46Q304 49 303 49T299 47Q267 -7 197 -7Q155 -7 125 11Q123 12 122 11T120 8V-190Q120 -200 110 -200H77Q67 -200
67 -190V494Q67 504 77 504H110Q120 504 120 494V151Q120 96 143 68T210 40Q254 40 279 72T304 160V494Q304 504 314 504Z" />
<glyph unicode="&#xb6;" glyph-name="paragraph" horiz-adv-x="459" d="M370 700Q380 700 380 690V-190Q380 -200 370 -200H344Q334 -200 334 -190V651Q334 655 330 655H244Q240 655 240 651V-190Q240 -200 230 -200H203Q193 -200 193 -190V246Q193 250 189 250Q143
254 109 284T55 365T36 475Q36 538 56 589T115 670T202 700H370Z" />
<glyph unicode="&#xb7;" glyph-name="middot" horiz-adv-x="189" d="M72 226T58 240T44 276Q44 298 58 312T94 326Q116 326 130 312T144 276Q144 254 130 240T94 226Q72 226 58 240Z" />
<glyph unicode="&#xb8;" glyph-name="cedilla" horiz-adv-x="113" d="M1 -180T3 -169L6 -156Q7 -146 18 -149Q22 -150 29 -150Q49 -150 61 -138T74 -100Q74 -58 32 -12Q29 -9 29 -6Q29 0 37 0H53Q60 0 63 -3Q63 -3 67 -7Q113 -50 113 -103Q113 -147 92 -165T37
-184Q22 -184 10 -181Q1 -180 3 -169Z" />
<glyph unicode="&#xb9;" glyph-name="uni00B9" horiz-adv-x="142" d="M68 869T75 869H99Q109 869 109 859V459Q109 449 99 449H78Q68 449 68 459V824Q68 826 67 827T63 828L33 818L30 817Q22 817 22 827V838Q22 847 29 850L62 866Q68 869 75 869Z" />
<glyph unicode="&#xba;" glyph-name="ordmasculine" horiz-adv-x="276" d="M92 365T65 392T37 465V608Q37 653 64 680T138 708Q184 708 211 681T239 608V465Q239 420 212 393T138 365Q92 365 65 392ZM165 400T182 418T199 466V605Q199 635 182 654T138 673Q111
673 94 654T77 605V466Q77 437 94 419T138 400Q165 400 182 418ZM28 278T28 288V307Q28 317 38 317H239Q249 317 249 307V288Q249 278 239 278H38Q28 278 28 288Z" />
<glyph unicode="&#xbb;" glyph-name="guillemotright" horiz-adv-x="475" d="M88 107T86 110T88 119L200 278Q202 281 200 284L88 443Q86 445 86 449Q86 451 88 453T94 455H123Q131 455 135 449L248 288Q252 281 248 274L135 113Q131 107 123 107H94Q88 107 86
110ZM234 107T232 110T234 119L346 278Q348 281 346 284L234 443Q232 445 232 449Q232 451 234 453T240 455H269Q277 455 281 449L394 288Q398 281 394 274L281 113Q277 107 269 107H240Q234 107 232 110Z" />
<glyph unicode="&#xbc;" glyph-name="onequarter" horiz-adv-x="649" d="M68 700T75 700H99Q109 700 109 690V290Q109 280 99 280H78Q68 280 68 290V655Q68 657 67 658T63 659L33 649L30 648Q22 648 22 658V669Q22 678 29 681L62 697Q68 700 75 700ZM71 0T70 3T71
12L507 693Q512 700 519 700H540Q546 700 547 697T546 688L110 7Q105 0 98 0H77Q71 0 70 3ZM635 152T635 142V125Q635 115 625 115H612Q608 115 608 111V10Q608 0 598 0H578Q568 0 568 10V111Q568 115 564 115H434Q424 115 424 125V141Q424 145 426 153L514 412Q517
420 526 420H548Q559 420 556 409L472 157Q471 155 472 154T475 152H564Q568 152 568 156V244Q568 254 578 254H598Q608 254 608 244V156Q608 152 612 152H625Q635 152 635 142Z" />
<glyph unicode="&#xbd;" glyph-name="onehalf" horiz-adv-x="658" d="M68 700T75 700H99Q109 700 109 690V290Q109 280 99 280H78Q68 280 68 290V655Q68 657 67 658T63 659L33 649L30 648Q22 648 22 658V669Q22 678 29 681L62 697Q68 700 75 700ZM71 0T70 3T71
12L507 693Q512 700 519 700H540Q546 700 547 697T546 688L110 7Q105 0 98 0H77Q71 0 70 3ZM442 0T442 10V28Q442 36 446 41L505 137Q529 173 550 209Q587 274 587 320Q587 352 573 370T534 389Q511 389 497 371T482 321V302Q482 292 472 292H451Q441 292 441 302V322Q442
369 467 397T535 425Q577 425 602 397T628 318Q628 263 590 195Q560 140 498 40Q497 38 498 37T501 35H630Q640 35 640 25V10Q640 0 630 0H452Q442 0 442 10Z" />
<glyph unicode="&#xbe;" glyph-name="threequarters" horiz-adv-x="716" d="M218 433T218 404Q218 364 208 338Q200 307 178 290T121 273Q83 273 57 297T26 360Q24 382 24 394Q24 404 34 404H54Q64 404 64 394Q64 383 66 369Q70 341 84 325T121 309Q157 309 171
348Q180 379 180 408Q180 439 174 461Q168 485 155 497T121 510Q116 510 110 508L104 507Q99 507 96 511L87 521Q82 528 86 535L166 658Q167 659 166 661T163 663H36Q26 663 26 673V688Q26 698 36 698H205Q215 698 215 688V670Q215 665 211 657L139 544Q138 542
138 541T141 539Q167 536 185 516T211 464Q218 433 218 404ZM138 0T137 3T138 12L574 693Q579 700 586 700H607Q613 700 614 697T613 688L177 7Q172 0 165 0H144Q138 0 137 3ZM703 152T703 142V125Q703 115 693 115H680Q676 115 676 111V10Q676 0 666 0H646Q636
0 636 10V111Q636 115 632 115H502Q492 115 492 125V141Q492 145 494 153L582 412Q585 420 594 420H616Q627 420 624 409L540 157Q539 155 540 154T543 152H632Q636 152 636 156V244Q636 254 646 254H666Q676 254 676 244V156Q676 152 680 152H693Q703 152 703
142Z" />
<glyph unicode="&#xbf;" glyph-name="questiondown" horiz-adv-x="352" d="M211 497T225 483T239 447Q239 425 225 411T189 397Q167 397 153 411T139 447Q139 469 153 483T189 497Q211 497 225 483ZM217 305T217 295V230Q217 189 202 163T154 103Q120 68 103 39T86
-39Q86 -94 110 -127T176 -160Q218 -160 243 -127T269 -38V-4Q269 6 279 6L312 4Q322 4 322 -6V-38Q322 -114 281 -161T175 -209Q110 -209 72 -163T33 -38Q33 25 53 62T111 136Q138 165 150 184T163 233V295Q163 305 173 305H207Q217 305 217 295Z" />
<glyph unicode="&#xc0;" glyph-name="Agrave" horiz-adv-x="391" d="M327 0T325 9L298 140Q298 142 297 143T293 144H97Q95 144 94 143T92 140L65 9Q64 0 54 0H21Q16 0 14 3T12 11L164 691Q166 700 175 700H215Q225 700 226 691L379 11V9Q379 0 370 0H336Q327
0 325 9ZM103 188T106 188H283Q286 188 286 192L197 615Q196 618 195 618T193 615L103 192Q103 188 106 188ZM212 775T212 773Q212 767 203 767H182Q175 767 170 774L102 884Q100 888 100 890Q100 896 109 896H136Q143 896 148 889L210 779Q212 775 212 773Z" />
<glyph unicode="&#xc1;" glyph-name="Aacute" horiz-adv-x="391" d="M327 0T325 9L298 140Q298 142 297 143T293 144H97Q95 144 94 143T92 140L65 9Q64 0 54 0H21Q16 0 14 3T12 11L164 691Q166 700 175 700H215Q225 700 226 691L379 11V9Q379 0 370 0H336Q327
0 325 9ZM103 188T106 188H283Q286 188 286 192L197 615Q196 618 195 618T193 615L103 192Q103 188 106 188ZM160 767T158 770T159 779L221 889Q226 896 233 896H260Q266 896 268 893T267 884L198 774Q193 767 186 767H166Q160 767 158 770Z" />
<glyph unicode="&#xc2;" glyph-name="Acircumflex" horiz-adv-x="391" d="M327 0T325 9L298 140Q298 142 297 143T293 144H97Q95 144 94 143T92 140L65 9Q64 0 54 0H21Q16 0 14 3T12 11L164 691Q166 700 175 700H215Q225 700 226 691L379 11V9Q379 0 370 0H336Q327
0 325 9ZM103 188T106 188H283Q286 188 286 192L197 615Q196 618 195 618T193 615L103 192Q103 188 106 188ZM96 775T95 778T96 787L161 889Q166 896 173 896H215Q222 896 227 889L294 787Q296 783 296 781Q296 775 288 775H257Q250 775 245 782L198 858Q197 860
195 860T192 858L145 782Q140 775 133 775H102Q96 775 95 778Z" />
<glyph unicode="&#xc3;" glyph-name="Atilde" horiz-adv-x="391" d="M327 0T325 9L298 140Q298 142 297 143T293 144H97Q95 144 94 143T92 140L65 9Q64 0 54 0H21Q16 0 14 3T12 11L164 691Q166 700 175 700H215Q225 700 226 691L379 11V9Q379 0 370 0H336Q327
0 325 9ZM103 188T106 188H283Q286 188 286 192L197 615Q196 618 195 618T193 615L103 192Q103 188 106 188ZM241 810T230 815T202 832Q199 834 190 840T173 850T157 853Q142 853 132 848T111 826Q105 817 97 823L85 832Q76 837 81 845Q108 893 154 893Q169 893
181 887T210 870Q215 867 224 861T241 851T257 848Q270 848 280 854T301 878Q306 888 315 882L327 875Q331 872 331 867Q331 862 327 855Q313 832 293 821T255 810Q241 810 230 815Z" />
<glyph unicode="&#xc4;" glyph-name="Adieresis" horiz-adv-x="391" d="M327 0T325 9L298 140Q298 142 297 143T293 144H97Q95 144 94 143T92 140L65 9Q64 0 54 0H21Q16 0 14 3T12 11L164 691Q166 700 175 700H215Q225 700 226 691L379 11V9Q379 0 370 0H336Q327
0 325 9ZM103 188T106 188H283Q286 188 286 192L197 615Q196 618 195 618T193 615L103 192Q103 188 106 188ZM244 801T230 815T216 851Q216 873 230 887T266 901Q288 901 302 887T316 851Q316 829 302 815T266 801Q244 801 230 815ZM103 801T89 815T75 851Q75 873
89 887T125 901Q147 901 161 887T175 851Q175 829 161 815T125 801Q103 801 89 815Z" />
<glyph unicode="&#xc5;" glyph-name="Aring" horiz-adv-x="391" d="M327 0T325 9L298 140Q298 142 297 143T293 144H97Q95 144 94 143T92 140L65 9Q64 0 54 0H21Q16 0 14 3T12 11L164 691Q166 700 175 700H215Q225 700 226 691L379 11V9Q379 0 370 0H336Q327 0
325 9ZM103 188T106 188H283Q286 188 286 192L197 615Q196 618 195 618T193 615L103 192Q103 188 106 188ZM153 779T124 809T94 883Q94 926 123 956T195 987Q238 987 267 957T297 883Q297 839 268 809T195 779Q153 779 124 809ZM223 814T242 834T262 883Q262 912
243 932T195 952Q168 952 148 932T128 883Q128 854 148 834T195 814Q223 814 242 834Z" />
<glyph unicode="&#xc6;" glyph-name="AE" horiz-adv-x="685" d="M641 653T631 653H394Q390 653 390 649V378Q390 374 394 374H546Q556 374 556 364V337Q556 327 546 327H394Q390 327 390 323V51Q390 47 394 47H631Q641 47 641 37V10Q641 0 631 0H346Q336 0 336
10V140Q336 144 332 144H131Q129 144 127 141L68 8Q65 0 57 0H23Q18 0 16 3T15 12L317 692Q320 700 328 700H631Q641 700 641 690V663Q641 653 631 653ZM148 191T149 190T152 188H332Q336 188 336 192L337 612Q337 615 335 615T332 613L149 193Q148 191 149 190Z"
/>
<glyph unicode="&#xc7;" glyph-name="Ccedilla" horiz-adv-x="441" d="M386 519T383 516T376 513L343 511Q333 511 333 521V546Q333 598 303 629T223 661Q174 661 144 630T114 546V155Q114 103 144 71T223 39Q272 39 302 71T333 155V178Q333 188 343 188L376 186Q386
186 386 176V159Q386 90 349 46T249 -6Q244 -8 247 -11Q289 -53 289 -103Q289 -147 268 -166T214 -185Q199 -185 187 -182Q178 -181 180 -170L182 -156Q183 -151 186 -150T194 -149Q198 -150 207 -150Q226 -150 238 -138T250 -99Q250 -57 204 -9Q202 -7 199 -7Q136
1 99 45T61 159V543Q61 618 105 663T223 708Q297 708 341 663T386 543V524Q386 519 383 516Z" />
<glyph unicode="&#xc8;" glyph-name="Egrave" horiz-adv-x="427" d="M383 653T373 653H136Q132 653 132 649V378Q132 374 136 374H288Q298 374 298 364V337Q298 327 288 327H136Q132 327 132 323V51Q132 47 136 47H373Q383 47 383 37V10Q383 0 373 0H89Q79 0 79
10V690Q79 700 89 700H373Q383 700 383 690V663Q383 653 373 653ZM248 775T248 773Q248 767 239 767H218Q211 767 206 774L138 884Q136 888 136 890Q136 896 145 896H172Q179 896 184 889L246 779Q248 775 248 773Z" />
<glyph unicode="&#xc9;" glyph-name="Eacute" horiz-adv-x="427" d="M383 653T373 653H136Q132 653 132 649V378Q132 374 136 374H288Q298 374 298 364V337Q298 327 288 327H136Q132 327 132 323V51Q132 47 136 47H373Q383 47 383 37V10Q383 0 373 0H89Q79 0 79
10V690Q79 700 89 700H373Q383 700 383 690V663Q383 653 373 653ZM196 767T194 770T195 779L257 889Q262 896 269 896H296Q302 896 304 893T303 884L234 774Q229 767 222 767H202Q196 767 194 770Z" />
<glyph unicode="&#xca;" glyph-name="Ecircumflex" horiz-adv-x="427" d="M383 653T373 653H136Q132 653 132 649V378Q132 374 136 374H288Q298 374 298 364V337Q298 327 288 327H136Q132 327 132 323V51Q132 47 136 47H373Q383 47 383 37V10Q383 0 373 0H89Q79
0 79 10V690Q79 700 89 700H373Q383 700 383 690V663Q383 653 373 653ZM132 775T131 778T132 787L197 889Q202 896 209 896H251Q258 896 263 889L330 787Q332 783 332 781Q332 775 324 775H293Q286 775 281 782L234 858Q233 860 231 860T228 858L181 782Q176 775
169 775H138Q132 775 131 778Z" />
<glyph unicode="&#xcb;" glyph-name="Edieresis" horiz-adv-x="427" d="M383 653T373 653H136Q132 653 132 649V378Q132 374 136 374H288Q298 374 298 364V337Q298 327 288 327H136Q132 327 132 323V51Q132 47 136 47H373Q383 47 383 37V10Q383 0 373 0H89Q79
0 79 10V690Q79 700 89 700H373Q383 700 383 690V663Q383 653 373 653ZM280 801T266 815T252 851Q252 873 266 887T302 901Q324 901 338 887T352 851Q352 829 338 815T302 801Q280 801 266 815ZM139 801T125 815T111 851Q111 873 125 887T161 901Q183 901 197 887T211
851Q211 829 197 815T161 801Q139 801 125 815Z" />
<glyph unicode="&#xcc;" glyph-name="Igrave" horiz-adv-x="211" d="M79 0T79 10V690Q79 700 89 700H122Q132 700 132 690V10Q132 0 122 0H89Q79 0 79 10ZM123 775T123 773Q123 767 114 767H93Q86 767 81 774L13 884Q11 888 11 890Q11 896 20 896H47Q54 896 59
889L121 779Q123 775 123 773Z" />
<glyph unicode="&#xcd;" glyph-name="Iacute" horiz-adv-x="211" d="M79 0T79 10V690Q79 700 89 700H122Q132 700 132 690V10Q132 0 122 0H89Q79 0 79 10ZM70 767T68 770T69 779L131 889Q136 896 143 896H170Q176 896 178 893T177 884L108 774Q103 767 96 767H76Q70
767 68 770Z" />
<glyph unicode="&#xce;" glyph-name="Icircumflex" horiz-adv-x="211" d="M79 0T79 10V690Q79 700 89 700H122Q132 700 132 690V10Q132 0 122 0H89Q79 0 79 10ZM6 775T5 778T6 787L71 889Q76 896 83 896H125Q132 896 137 889L204 787Q206 783 206 781Q206 775
198 775H167Q160 775 155 782L108 858Q107 860 105 860T102 858L55 782Q50 775 43 775H12Q6 775 5 778Z" />
<glyph unicode="&#xcf;" glyph-name="Idieresis" horiz-adv-x="211" d="M79 0T79 10V690Q79 700 89 700H122Q132 700 132 690V10Q132 0 122 0H89Q79 0 79 10ZM154 801T140 815T126 851Q126 873 140 887T176 901Q198 901 212 887T226 851Q226 829 212 815T176 801Q154
801 140 815ZM13 801T-1 815T-15 851Q-15 873 -1 887T35 901Q57 901 71 887T85 851Q85 829 71 815T35 801Q13 801 -1 815Z" />
<glyph unicode="&#xd0;" glyph-name="Eth" horiz-adv-x="509" d="M356 700T399 651T442 516V184Q442 99 399 50T282 0H135Q125 0 125 10V343Q125 347 121 347H89Q79 347 79 357V374Q79 384 89 384H121Q125 384 125 388V690Q125 700 135 700H282Q356 700 399 651ZM389
514Q389 578 361 615T282 653H182Q178 653 178 649V388Q178 384 182 384H267Q277 384 277 374V357Q277 347 267 347H182Q178 347 178 343V51Q178 47 182 47H282Q331 48 359 84T389 185V514Z" />
<glyph unicode="&#xd1;" glyph-name="Ntilde" horiz-adv-x="488" d="M357 700T367 700H399Q409 700 409 690V10Q409 0 399 0H360Q352 0 349 8L136 568Q135 571 133 571T131 567L132 10Q132 0 122 0H89Q79 0 79 10V690Q79 700 89 700H127Q135 700 138 692L352 135Q353
132 355 132T357 136V690Q357 700 367 700ZM290 818T279 823T251 840Q248 842 239 848T222 858T206 861Q191 861 181 856T160 834Q154 825 146 831L134 840Q125 845 130 853Q157 901 203 901Q218 901 230 895T259 878Q264 875 273 869T290 859T306 856Q319 856
329 862T350 886Q355 896 364 890L376 883Q380 880 380 875Q380 870 376 863Q362 840 342 829T304 818Q290 818 279 823Z" />
<glyph unicode="&#xd2;" glyph-name="Ograve" horiz-adv-x="451" d="M152 -8T107 38T61 160V539Q61 615 106 661T225 708Q299 708 345 662T391 539V160Q391 85 345 39T225 -8Q152 -8 107 38ZM275 39T306 72T338 158V541Q338 594 307 627T225 661Q176 661 145 628T114
541V158Q114 105 145 72T225 39Q275 39 306 72ZM242 774T242 772Q242 766 233 766H212Q205 766 200 773L132 883Q130 887 130 889Q130 895 139 895H166Q173 895 178 888L240 778Q242 774 242 772Z" />
<glyph unicode="&#xd3;" glyph-name="Oacute" horiz-adv-x="451" d="M152 -8T107 38T61 160V539Q61 615 106 661T225 708Q299 708 345 662T391 539V160Q391 85 345 39T225 -8Q152 -8 107 38ZM275 39T306 72T338 158V541Q338 594 307 627T225 661Q176 661 145 628T114
541V158Q114 105 145 72T225 39Q275 39 306 72ZM190 766T188 769T189 778L251 888Q256 895 263 895H290Q296 895 298 892T297 883L228 773Q223 766 216 766H196Q190 766 188 769Z" />
<glyph unicode="&#xd4;" glyph-name="Ocircumflex" horiz-adv-x="451" d="M152 -8T107 38T61 160V539Q61 615 106 661T225 708Q299 708 345 662T391 539V160Q391 85 345 39T225 -8Q152 -8 107 38ZM275 39T306 72T338 158V541Q338 594 307 627T225 661Q176 661
145 628T114 541V158Q114 105 145 72T225 39Q275 39 306 72ZM126 774T125 777T126 786L191 888Q196 895 203 895H245Q252 895 257 888L324 786Q326 782 326 780Q326 774 318 774H287Q280 774 275 781L228 857Q227 859 225 859T222 857L175 781Q170 774 163 774H132Q126
774 125 777Z" />
<glyph unicode="&#xd5;" glyph-name="Otilde" horiz-adv-x="451" d="M152 -8T107 38T61 160V539Q61 615 106 661T225 708Q299 708 345 662T391 539V160Q391 85 345 39T225 -8Q152 -8 107 38ZM275 39T306 72T338 158V541Q338 594 307 627T225 661Q176 661 145 628T114
541V158Q114 105 145 72T225 39Q275 39 306 72ZM271 809T260 814T232 831Q229 833 220 839T203 849T187 852Q172 852 162 847T141 825Q135 816 127 822L115 831Q106 836 111 844Q138 892 184 892Q199 892 211 886T240 869Q245 866 254 860T271 850T287 847Q300
847 310 853T331 877Q336 887 345 881L357 874Q361 871 361 866Q361 861 357 854Q343 831 323 820T285 809Q271 809 260 814Z" />
<glyph unicode="&#xd6;" glyph-name="Odieresis" horiz-adv-x="451" d="M152 -8T107 38T61 160V539Q61 615 106 661T225 708Q299 708 345 662T391 539V160Q391 85 345 39T225 -8Q152 -8 107 38ZM275 39T306 72T338 158V541Q338 594 307 627T225 661Q176 661 145
628T114 541V158Q114 105 145 72T225 39Q275 39 306 72ZM273 800T259 814T245 850Q245 872 259 886T295 900Q317 900 331 886T345 850Q345 828 331 814T295 800Q273 800 259 814ZM132 800T118 814T104 850Q104 872 118 886T154 900Q176 900 190 886T204 850Q204
828 190 814T154 800Q132 800 118 814Z" />
<glyph unicode="&#xd7;" glyph-name="multiply" horiz-adv-x="363" d="M324 433T324 429T321 422L214 315Q211 312 214 309L321 201Q324 198 324 194T321 187L305 171Q302 168 298 168T291 171L184 278Q181 281 178 278L71 171Q68 168 64 168T57 171L41 187Q38
190 38 194T41 201L148 309Q151 312 148 315L41 422Q38 425 38 429T41 436L57 452Q60 455 64 455T71 452L178 345Q181 342 184 345L291 452Q294 455 298 455T305 452L321 436Q324 433 324 429Z" />
<glyph unicode="&#xd8;" glyph-name="Oslash" horiz-adv-x="494" d="M397 713T394 703L367 638Q366 636 368 632Q392 595 392 539V160Q392 85 346 39T226 -8Q163 -8 121 26Q117 29 115 25L95 -24Q92 -34 82 -29L62 -19Q54 -14 57 -6L85 62Q87 65 84 68Q61 106
61 160V539Q61 615 106 661T226 708Q289 708 332 673Q336 670 338 674L358 723Q360 728 363 729T371 728L390 717Q397 713 394 703ZM114 150T115 146Q115 143 117 143T120 145L314 616Q315 619 313 621Q298 640 276 650T226 661Q176 661 145 628T114 541V158Q114
150 115 146ZM339 550T338 554Q338 557 336 557T333 555L139 84Q138 81 140 79Q172 39 226 39Q276 39 307 72T339 158V541Q339 550 338 554Z" />
<glyph unicode="&#xd9;" glyph-name="Ugrave" horiz-adv-x="475" d="M163 -8T118 43T73 181V690Q73 700 83 700H116Q126 700 126 690V175Q126 114 156 77T237 39Q287 39 318 76T350 175V690Q350 700 360 700H393Q403 700 403 690V181Q403 96 357 44T237 -8Q163
-8 118 43ZM254 775T254 773Q254 767 245 767H224Q217 767 212 774L144 884Q142 888 142 890Q142 896 151 896H178Q185 896 190 889L252 779Q254 775 254 773Z" />
<glyph unicode="&#xda;" glyph-name="Uacute" horiz-adv-x="475" d="M163 -8T118 43T73 181V690Q73 700 83 700H116Q126 700 126 690V175Q126 114 156 77T237 39Q287 39 318 76T350 175V690Q350 700 360 700H393Q403 700 403 690V181Q403 96 357 44T237 -8Q163
-8 118 43ZM202 767T200 770T201 779L263 889Q268 896 275 896H302Q308 896 310 893T309 884L240 774Q235 767 228 767H208Q202 767 200 770Z" />
<glyph unicode="&#xdb;" glyph-name="Ucircumflex" horiz-adv-x="475" d="M163 -8T118 43T73 181V690Q73 700 83 700H116Q126 700 126 690V175Q126 114 156 77T237 39Q287 39 318 76T350 175V690Q350 700 360 700H393Q403 700 403 690V181Q403 96 357 44T237 -8Q163
-8 118 43ZM138 775T137 778T138 787L203 889Q208 896 215 896H257Q264 896 269 889L336 787Q338 783 338 781Q338 775 330 775H299Q292 775 287 782L240 858Q239 860 237 860T234 858L187 782Q182 775 175 775H144Q138 775 137 778Z" />
<glyph unicode="&#xdc;" glyph-name="Udieresis" horiz-adv-x="475" d="M163 -8T118 43T73 181V690Q73 700 83 700H116Q126 700 126 690V175Q126 114 156 77T237 39Q287 39 318 76T350 175V690Q350 700 360 700H393Q403 700 403 690V181Q403 96 357 44T237 -8Q163
-8 118 43ZM285 801T271 815T257 851Q257 873 271 887T307 901Q329 901 343 887T357 851Q357 829 343 815T307 801Q285 801 271 815ZM144 801T130 815T116 851Q116 873 130 887T166 901Q188 901 202 887T216 851Q216 829 202 815T166 801Q144 801 130 815Z" />
<glyph unicode="&#xdd;" glyph-name="Yacute" horiz-adv-x="411" d="M179 0T179 10V320Q179 324 178 325L40 688L39 692Q39 700 48 700H83Q92 700 95 692L203 386Q204 384 206 384T209 386L316 692Q319 700 328 700H363Q368 700 370 697T371 688L233 325Q232 324
232 320V10Q232 0 222 0H189Q179 0 179 10ZM171 767T169 770T170 779L232 889Q237 896 244 896H271Q277 896 279 893T278 884L209 774Q204 767 197 767H177Q171 767 169 770Z" />
<glyph unicode="&#xde;" glyph-name="Thorn" horiz-adv-x="436" d="M314 540T357 488T400 350Q400 266 358 215T245 163H135Q131 163 131 159V10Q131 0 121 0H88Q78 0 78 10V690Q78 700 88 700H121Q131 700 131 690V544Q131 540 135 540H243Q314 540 357 488ZM287
208T317 246T347 349Q347 415 317 454T237 493H135Q131 493 131 489V212Q131 208 135 208H237Q287 208 317 246Z" />
<glyph unicode="&#xdf;" glyph-name="germandbls" horiz-adv-x="422" d="M67 0T67 10V517Q67 607 105 658T210 709Q281 709 321 658T362 518Q362 463 344 425T293 371Q288 369 293 366Q328 347 348 302T368 192Q368 102 325 51T205 0H170Q160 0 160 10V36Q160
46 170 46L206 47Q259 48 287 86T316 196Q316 267 291 306T221 347H185Q175 347 175 357V381Q175 391 185 391H221Q264 391 287 424T310 519Q310 587 284 624T211 662Q168 662 144 626T120 522V10Q120 0 110 0H77Q67 0 67 10Z" />
<glyph unicode="&#xe0;" glyph-name="agrave" horiz-adv-x="403" d="M272 512T310 467T349 345V10Q349 0 339 0H306Q296 0 296 10V46Q296 49 295 49T291 48Q254 -8 175 -8Q122 -8 83 23T44 132Q44 215 90 254T214 293H292Q296 293 296 297V343Q296 399 271 432T202
465Q168 465 143 443T113 386Q113 376 103 376L67 378Q62 378 60 381T58 388Q64 444 105 478T204 512Q272 512 310 467ZM231 39T263 68T296 150V245Q296 249 292 249H214Q162 249 131 221T99 136Q99 87 123 63T186 39Q231 39 263 68ZM219 579T219 577Q219 571 210
571H189Q182 571 177 578L109 688Q107 692 107 694Q107 700 116 700H143Q150 700 155 693L217 583Q219 579 219 577Z" />
<glyph unicode="&#xe1;" glyph-name="aacute" horiz-adv-x="403" d="M272 512T310 467T349 345V10Q349 0 339 0H306Q296 0 296 10V46Q296 49 295 49T291 48Q254 -8 175 -8Q122 -8 83 23T44 132Q44 215 90 254T214 293H292Q296 293 296 297V343Q296 399 271 432T202
465Q168 465 143 443T113 386Q113 376 103 376L67 378Q62 378 60 381T58 388Q64 444 105 478T204 512Q272 512 310 467ZM231 39T263 68T296 150V245Q296 249 292 249H214Q162 249 131 221T99 136Q99 87 123 63T186 39Q231 39 263 68ZM166 571T164 574T165 583L227
693Q232 700 239 700H266Q272 700 274 697T273 688L204 578Q199 571 192 571H172Q166 571 164 574Z" />
<glyph unicode="&#xe2;" glyph-name="acircumflex" horiz-adv-x="403" d="M272 512T310 467T349 345V10Q349 0 339 0H306Q296 0 296 10V46Q296 49 295 49T291 48Q254 -8 175 -8Q122 -8 83 23T44 132Q44 215 90 254T214 293H292Q296 293 296 297V343Q296 399 271
432T202 465Q168 465 143 443T113 386Q113 376 103 376L67 378Q62 378 60 381T58 388Q64 444 105 478T204 512Q272 512 310 467ZM231 39T263 68T296 150V245Q296 249 292 249H214Q162 249 131 221T99 136Q99 87 123 63T186 39Q231 39 263 68ZM102 579T101 582T102
591L167 693Q172 700 179 700H221Q228 700 233 693L300 591Q302 587 302 585Q302 579 294 579H263Q256 579 251 586L204 662Q203 664 201 664T198 662L151 586Q146 579 139 579H108Q102 579 101 582Z" />
<glyph unicode="&#xe3;" glyph-name="atilde" horiz-adv-x="403" d="M272 512T310 467T349 345V10Q349 0 339 0H306Q296 0 296 10V46Q296 49 295 49T291 48Q254 -8 175 -8Q122 -8 83 23T44 132Q44 215 90 254T214 293H292Q296 293 296 297V343Q296 399 271 432T202
465Q168 465 143 443T113 386Q113 376 103 376L67 378Q62 378 60 381T58 388Q64 444 105 478T204 512Q272 512 310 467ZM231 39T263 68T296 150V245Q296 249 292 249H214Q162 249 131 221T99 136Q99 87 123 63T186 39Q231 39 263 68ZM248 614T237 619T209 636Q206
638 197 644T180 654T164 657Q149 657 139 652T118 630Q112 621 104 627L92 636Q83 641 88 649Q115 697 161 697Q176 697 188 691T217 674Q222 671 231 665T248 655T264 652Q277 652 287 658T308 682Q313 692 322 686L334 679Q338 676 338 671Q338 666 334 659Q320
636 300 625T262 614Q248 614 237 619Z" />
<glyph unicode="&#xe4;" glyph-name="adieresis" horiz-adv-x="403" d="M272 512T310 467T349 345V10Q349 0 339 0H306Q296 0 296 10V46Q296 49 295 49T291 48Q254 -8 175 -8Q122 -8 83 23T44 132Q44 215 90 254T214 293H292Q296 293 296 297V343Q296 399 271
432T202 465Q168 465 143 443T113 386Q113 376 103 376L67 378Q62 378 60 381T58 388Q64 444 105 478T204 512Q272 512 310 467ZM231 39T263 68T296 150V245Q296 249 292 249H214Q162 249 131 221T99 136Q99 87 123 63T186 39Q231 39 263 68ZM250 605T236 619T222
655Q222 677 236 691T272 705Q294 705 308 691T322 655Q322 633 308 619T272 605Q250 605 236 619ZM109 605T95 619T81 655Q81 677 95 691T131 705Q153 705 167 691T181 655Q181 633 167 619T131 605Q109 605 95 619Z" />
<glyph unicode="&#xe5;" glyph-name="aring" horiz-adv-x="403" d="M272 512T310 467T349 345V10Q349 0 339 0H306Q296 0 296 10V46Q296 49 295 49T291 48Q254 -8 175 -8Q122 -8 83 23T44 132Q44 215 90 254T214 293H292Q296 293 296 297V343Q296 399 271 432T202
465Q168 465 143 443T113 386Q113 376 103 376L67 378Q62 378 60 381T58 388Q64 444 105 478T204 512Q272 512 310 467ZM231 39T263 68T296 150V245Q296 249 292 249H214Q162 249 131 221T99 136Q99 87 123 63T186 39Q231 39 263 68ZM160 583T131 613T101 687Q101
730 130 760T202 791Q245 791 274 761T304 687Q304 643 275 613T202 583Q160 583 131 613ZM230 618T249 638T269 687Q269 716 250 736T202 756Q175 756 155 736T135 687Q135 658 155 638T202 618Q230 618 249 638Z" />
<glyph unicode="&#xe6;" glyph-name="ae" horiz-adv-x="644" d="M120 -8T82 22T44 131Q44 284 209 284H291Q295 284 295 288V343Q295 399 271 432T201 465Q166 465 139 443T108 386Q107 377 97 377L64 379Q59 379 57 382T55 389Q60 445 101 478T201 512Q283 512
318 439Q321 435 324 439Q342 473 374 492T448 512Q513 512 554 470T595 362V248Q595 238 585 238H355Q351 238 351 234V144Q351 100 377 71T446 42Q481 42 506 62T539 116Q541 121 543 123T550 124L583 122Q587 122 590 119T592 111Q582 56 544 24T449 -8Q402
-8 368 14T321 72Q320 74 319 74T317 73Q302 35 264 14T174 -8Q120 -8 82 22ZM351 283T355 283H538Q542 283 542 287V359Q542 406 516 435T446 465Q404 465 378 436T351 359V287Q351 283 355 283ZM230 36T262 64T295 144V233Q295 237 291 237H213Q160 237 129 212T98
133Q98 84 122 60T186 36Q230 36 262 64Z" />
<glyph unicode="&#xe7;" glyph-name="ccedilla" horiz-adv-x="394" d="M352 362T342 362L309 360Q299 360 299 370V376Q299 412 272 438T203 465Q161 465 135 436T108 359V144Q108 98 134 69T203 39Q245 39 272 65T299 128V133Q299 143 309 143H342Q352 143 352
133V125Q352 75 319 38T229 -6Q223 -8 228 -11Q270 -52 270 -104Q270 -148 248 -166T194 -185Q179 -185 167 -182Q158 -181 160 -170L162 -156Q163 -151 166 -150T174 -149Q179 -150 187 -150Q230 -150 230 -99Q230 -57 184 -9Q182 -7 179 -7Q123 1 89 41T55 142V362Q55
428 96 470T203 512Q247 512 281 494T333 445T352 378V370Q352 362 342 362Z" />
<glyph unicode="&#xe8;" glyph-name="egrave" horiz-adv-x="401" d="M352 233T342 233H112Q108 233 108 229V144Q108 98 134 69T203 39Q238 39 263 60T296 115Q299 124 307 124L339 122Q343 122 346 120T348 114V110Q338 55 300 24T203 -8Q137 -8 96 33T55 141V362Q55
428 96 470T203 512Q270 512 311 470T352 362V243Q352 233 342 233ZM161 465T135 436T108 359V283Q108 279 112 279H295Q299 279 299 283V359Q299 406 273 435T203 465Q161 465 135 436ZM217 579T217 577Q217 571 208 571H187Q180 571 175 578L107 688Q105 692
105 694Q105 700 114 700H141Q148 700 153 693L215 583Q217 579 217 577Z" />
<glyph unicode="&#xe9;" glyph-name="eacute" horiz-adv-x="401" d="M352 233T342 233H112Q108 233 108 229V144Q108 98 134 69T203 39Q238 39 263 60T296 115Q299 124 307 124L339 122Q343 122 346 120T348 114V110Q338 55 300 24T203 -8Q137 -8 96 33T55 141V362Q55
428 96 470T203 512Q270 512 311 470T352 362V243Q352 233 342 233ZM161 465T135 436T108 359V283Q108 279 112 279H295Q299 279 299 283V359Q299 406 273 435T203 465Q161 465 135 436ZM165 571T163 574T164 583L226 693Q231 700 238 700H265Q271 700 273 697T272
688L203 578Q198 571 191 571H171Q165 571 163 574Z" />
<glyph unicode="&#xea;" glyph-name="ecircumflex" horiz-adv-x="401" d="M352 233T342 233H112Q108 233 108 229V144Q108 98 134 69T203 39Q238 39 263 60T296 115Q299 124 307 124L339 122Q343 122 346 120T348 114V110Q338 55 300 24T203 -8Q137 -8 96 33T55
141V362Q55 428 96 470T203 512Q270 512 311 470T352 362V243Q352 233 342 233ZM161 465T135 436T108 359V283Q108 279 112 279H295Q299 279 299 283V359Q299 406 273 435T203 465Q161 465 135 436ZM101 579T100 582T101 591L166 693Q171 700 178 700H220Q227 700
232 693L299 591Q301 587 301 585Q301 579 293 579H262Q255 579 250 586L203 662Q202 664 200 664T197 662L150 586Q145 579 138 579H107Q101 579 100 582Z" />
<glyph unicode="&#xeb;" glyph-name="edieresis" horiz-adv-x="401" d="M352 233T342 233H112Q108 233 108 229V144Q108 98 134 69T203 39Q238 39 263 60T296 115Q299 124 307 124L339 122Q343 122 346 120T348 114V110Q338 55 300 24T203 -8Q137 -8 96 33T55
141V362Q55 428 96 470T203 512Q270 512 311 470T352 362V243Q352 233 342 233ZM161 465T135 436T108 359V283Q108 279 112 279H295Q299 279 299 283V359Q299 406 273 435T203 465Q161 465 135 436ZM249 605T235 619T221 655Q221 677 235 691T271 705Q293 705 307
691T321 655Q321 633 307 619T271 605Q249 605 235 619ZM108 605T94 619T80 655Q80 677 94 691T130 705Q152 705 166 691T180 655Q180 633 166 619T130 605Q108 605 94 619Z" />
<glyph unicode="&#xec;" glyph-name="igrave" horiz-adv-x="163" d="M55 0T55 10V494Q55 504 65 504H98Q108 504 108 494V10Q108 0 98 0H65Q55 0 55 10ZM99 579T99 577Q99 571 90 571H69Q62 571 57 578L-11 688Q-13 692 -13 694Q-13 700 -4 700H23Q30 700 35 693L97
583Q99 579 99 577Z" />
<glyph unicode="&#xed;" glyph-name="iacute" horiz-adv-x="163" d="M55 0T55 10V494Q55 504 65 504H98Q108 504 108 494V10Q108 0 98 0H65Q55 0 55 10ZM46 571T44 574T45 583L107 693Q112 700 119 700H146Q152 700 154 697T153 688L84 578Q79 571 72 571H52Q46
571 44 574Z" />
<glyph unicode="&#xee;" glyph-name="icircumflex" horiz-adv-x="163" d="M55 0T55 10V494Q55 504 65 504H98Q108 504 108 494V10Q108 0 98 0H65Q55 0 55 10ZM-18 579T-19 582T-18 591L47 693Q52 700 59 700H101Q108 700 113 693L180 591Q182 587 182 585Q182
579 174 579H143Q136 579 131 586L84 662Q83 664 81 664T78 662L31 586Q26 579 19 579H-12Q-18 579 -19 582Z" />
<glyph unicode="&#xef;" glyph-name="idieresis" horiz-adv-x="163" d="M55 0T55 10V494Q55 504 65 504H98Q108 504 108 494V10Q108 0 98 0H65Q55 0 55 10ZM130 605T116 619T102 655Q102 677 116 691T152 705Q174 705 188 691T202 655Q202 633 188 619T152 605Q130
605 116 619ZM-11 605T-25 619T-39 655Q-39 677 -25 691T11 705Q33 705 47 691T61 655Q61 633 47 619T11 605Q-11 605 -25 619Z" />
<glyph unicode="&#xf0;" glyph-name="eth" horiz-adv-x="428" d="M289 601T290 598Q349 498 353 355V321V248V142Q353 75 312 34T203 -8Q136 -8 96 33T55 142V355Q55 420 95 462T197 504Q255 504 289 465Q291 463 292 463T293 466Q283 527 249 586Q247 590 244
588L171 565L167 564Q161 564 158 572L155 583V586Q155 592 162 595L224 615Q228 617 226 620Q205 651 168 688Q165 691 165 695Q165 700 173 700H203Q210 700 215 695Q251 657 268 632Q270 628 273 630L355 655L359 656Q365 656 368 648L371 637V634Q371 628 364
625L292 603Q289 601 290 598ZM300 398T273 427T203 457Q161 457 135 428T108 352V144Q108 98 134 69T203 39Q246 39 273 68T300 144V352Q300 398 273 427Z" />
<glyph unicode="&#xf1;" glyph-name="ntilde" horiz-adv-x="418" d="M168 657T159 652T141 631Q134 621 127 628L119 635Q112 642 116 649Q138 697 178 697Q191 697 201 691T226 674Q229 672 237 666T252 656T266 652Q278 652 286 658T303 681Q310 691 317 685L326
679Q333 674 330 665Q318 638 300 626T265 614Q245 614 219 636Q205 648 198 652T180 657Q168 657 159 652ZM292 511T325 470T358 355V10Q358 0 348 0H315Q305 0 305 10V350Q305 404 281 434T214 464Q170 464 145 432T120 344V10Q120 0 110 0H77Q67 0 67 10V494Q67
504 77 504H110Q120 504 120 494V456Q120 453 121 453T125 455Q159 511 231 511Q292 511 325 470Z" />
<glyph unicode="&#xf2;" glyph-name="ograve" horiz-adv-x="407" d="M136 -8T96 33T55 142V362Q55 428 96 470T203 512Q271 512 312 471T353 362V142Q353 75 312 34T203 -8Q136 -8 96 33ZM246 39T273 68T300 144V359Q300 406 273 435T203 465Q161 465 135 436T108
359V144Q108 98 134 69T203 39Q246 39 273 68ZM220 579T220 577Q220 571 211 571H190Q183 571 178 578L110 688Q108 692 108 694Q108 700 117 700H144Q151 700 156 693L218 583Q220 579 220 577Z" />
<glyph unicode="&#xf3;" glyph-name="oacute" horiz-adv-x="407" d="M136 -8T96 33T55 142V362Q55 428 96 470T203 512Q271 512 312 471T353 362V142Q353 75 312 34T203 -8Q136 -8 96 33ZM246 39T273 68T300 144V359Q300 406 273 435T203 465Q161 465 135 436T108
359V144Q108 98 134 69T203 39Q246 39 273 68ZM168 571T166 574T167 583L229 693Q234 700 241 700H268Q274 700 276 697T275 688L206 578Q201 571 194 571H174Q168 571 166 574Z" />
<glyph unicode="&#xf4;" glyph-name="ocircumflex" horiz-adv-x="407" d="M136 -8T96 33T55 142V362Q55 428 96 470T203 512Q271 512 312 471T353 362V142Q353 75 312 34T203 -8Q136 -8 96 33ZM246 39T273 68T300 144V359Q300 406 273 435T203 465Q161 465 135
436T108 359V144Q108 98 134 69T203 39Q246 39 273 68ZM104 579T103 582T104 591L169 693Q174 700 181 700H223Q230 700 235 693L302 591Q304 587 304 585Q304 579 296 579H265Q258 579 253 586L206 662Q205 664 203 664T200 662L153 586Q148 579 141 579H110Q104
579 103 582Z" />
<glyph unicode="&#xf5;" glyph-name="otilde" horiz-adv-x="407" d="M136 -8T96 33T55 142V362Q55 428 96 470T203 512Q271 512 312 471T353 362V142Q353 75 312 34T203 -8Q136 -8 96 33ZM246 39T273 68T300 144V359Q300 406 273 435T203 465Q161 465 135 436T108
359V144Q108 98 134 69T203 39Q246 39 273 68ZM250 614T239 619T211 636Q208 638 199 644T182 654T166 657Q151 657 141 652T120 630Q114 621 106 627L94 636Q85 641 90 649Q117 697 163 697Q178 697 190 691T219 674Q224 671 233 665T250 655T266 652Q279 652
289 658T310 682Q315 692 324 686L336 679Q340 676 340 671Q340 666 336 659Q322 636 302 625T264 614Q250 614 239 619Z" />
<glyph unicode="&#xf6;" glyph-name="odieresis" horiz-adv-x="407" d="M136 -8T96 33T55 142V362Q55 428 96 470T203 512Q271 512 312 471T353 362V142Q353 75 312 34T203 -8Q136 -8 96 33ZM246 39T273 68T300 144V359Q300 406 273 435T203 465Q161 465 135 436T108
359V144Q108 98 134 69T203 39Q246 39 273 68ZM252 605T238 619T224 655Q224 677 238 691T274 705Q296 705 310 691T324 655Q324 633 310 619T274 605Q252 605 238 619ZM111 605T97 619T83 655Q83 677 97 691T133 705Q155 705 169 691T183 655Q183 633 169 619T133
605Q111 605 97 619Z" />
<glyph unicode="&#xf7;" glyph-name="divide" horiz-adv-x="443" d="M201 430T187 444T172 478Q172 497 186 511T221 525Q241 525 255 511T270 478Q270 458 256 444T221 430Q201 430 187 444ZM34 308T34 318V340Q34 350 44 350H398Q408 350 408 340V318Q408 308
398 308H44Q34 308 34 318ZM201 134T187 148T172 182Q172 201 186 215T221 230Q241 230 255 216T270 182Q270 163 256 149T221 134Q201 134 187 148Z" />
<glyph unicode="&#xf8;" glyph-name="oslash" horiz-adv-x="417" d="M321 461T323 459Q354 420 354 362V142Q354 75 313 34T204 -8Q163 -8 133 7Q128 9 127 5L107 -42Q105 -47 102 -48T94 -47L72 -35Q65 -31 68 -21L92 35Q93 38 91 40Q56 80 56 142V362Q56 428
97 470T204 512Q248 512 281 494Q286 492 287 496L309 549Q312 559 322 554L345 542Q352 538 349 528L322 464Q321 461 323 459ZM109 122T115 104Q116 101 118 101T121 104L263 441Q264 444 261 446Q237 465 204 465Q162 465 136 436T109 359V144Q109 122 115 104ZM301
379T297 391Q296 394 295 394T292 392L150 59Q149 56 152 54Q173 39 204 39Q247 39 274 68T301 144V359Q301 379 297 391Z" />
<glyph unicode="&#xf9;" glyph-name="ugrave" horiz-adv-x="418" d="M298 504T308 504H341Q351 504 351 494V10Q351 0 341 0H308Q298 0 298 10V46Q298 49 297 49T293 48Q261 -7 191 -7Q131 -7 96 29T61 139V494Q61 504 71 504H104Q114 504 114 494V151Q114 96
137 68T204 40Q248 40 273 72T298 160V494Q298 504 308 504ZM223 579T223 577Q223 571 214 571H193Q186 571 181 578L113 688Q111 692 111 694Q111 700 120 700H147Q154 700 159 693L221 583Q223 579 223 577Z" />
<glyph unicode="&#xfa;" glyph-name="uacute" horiz-adv-x="418" d="M298 504T308 504H341Q351 504 351 494V10Q351 0 341 0H308Q298 0 298 10V46Q298 49 297 49T293 48Q261 -7 191 -7Q131 -7 96 29T61 139V494Q61 504 71 504H104Q114 504 114 494V151Q114 96
137 68T204 40Q248 40 273 72T298 160V494Q298 504 308 504ZM170 571T168 574T169 583L231 693Q236 700 243 700H270Q276 700 278 697T277 688L208 578Q203 571 196 571H176Q170 571 168 574Z" />
<glyph unicode="&#xfb;" glyph-name="ucircumflex" horiz-adv-x="418" d="M298 504T308 504H341Q351 504 351 494V10Q351 0 341 0H308Q298 0 298 10V46Q298 49 297 49T293 48Q261 -7 191 -7Q131 -7 96 29T61 139V494Q61 504 71 504H104Q114 504 114 494V151Q114
96 137 68T204 40Q248 40 273 72T298 160V494Q298 504 308 504ZM106 579T105 582T106 591L171 693Q176 700 183 700H225Q232 700 237 693L304 591Q306 587 306 585Q306 579 298 579H267Q260 579 255 586L208 662Q207 664 205 664T202 662L155 586Q150 579 143 579H112Q106
579 105 582Z" />
<glyph unicode="&#xfc;" glyph-name="udieresis" horiz-adv-x="418" d="M298 504T308 504H341Q351 504 351 494V10Q351 0 341 0H308Q298 0 298 10V46Q298 49 297 49T293 48Q261 -7 191 -7Q131 -7 96 29T61 139V494Q61 504 71 504H104Q114 504 114 494V151Q114
96 137 68T204 40Q248 40 273 72T298 160V494Q298 504 308 504ZM254 605T240 619T226 655Q226 677 240 691T276 705Q298 705 312 691T326 655Q326 633 312 619T276 605Q254 605 240 619ZM113 605T99 619T85 655Q85 677 99 691T135 705Q157 705 171 691T185 655Q185
633 171 619T135 605Q113 605 99 619Z" />
<glyph unicode="&#xfd;" glyph-name="yacute" horiz-adv-x="353" d="M43 -200T41 -197T39 -190V-164Q39 -154 49 -154H50Q80 -153 96 -142T124 -99T149 -3Q150 -1 150 0T149 3L21 493L20 496Q20 504 30 504H65Q74 504 76 495L175 78Q176 75 177 75T179 78L277
495Q279 504 288 504L324 503Q329 503 331 500T332 492L191 -51Q174 -116 158 -147T117 -189T50 -200H45Q43 -200 41 -197ZM142 571T140 574T141 583L203 693Q208 700 215 700H242Q248 700 250 697T249 688L180 578Q175 571 168 571H148Q142 571 140 574Z" />
<glyph unicode="&#xfe;" glyph-name="thorn" horiz-adv-x="411" d="M284 512T320 471T356 362V142Q356 74 320 33T222 -8Q189 -8 162 7T119 50Q118 53 116 53T114 49V-190Q114 -200 104 -200H71Q61 -200 61 -190V690Q61 700 71 700H104Q114 700 114 690V455Q114
452 116 452T119 454Q135 482 162 497T222 512Q284 512 320 471ZM303 406T277 435T207 465Q166 465 140 436T114 359V144Q114 97 140 68T207 39Q250 39 276 68T303 144V359Q303 406 277 435Z" />
<glyph unicode="&#xff;" glyph-name="ydieresis" horiz-adv-x="353" d="M43 -200T41 -197T39 -190V-164Q39 -154 49 -154H50Q80 -153 96 -142T124 -99T149 -3Q150 -1 150 0T149 3L21 493L20 496Q20 504 30 504H65Q74 504 76 495L175 78Q176 75 177 75T179 78L277
495Q279 504 288 504L324 503Q329 503 331 500T332 492L191 -51Q174 -116 158 -147T117 -189T50 -200H45Q43 -200 41 -197ZM226 605T212 619T198 655Q198 677 212 691T248 705Q270 705 284 691T298 655Q298 633 284 619T248 605Q226 605 212 619ZM85 605T71 619T57
655Q57 677 71 691T107 705Q129 705 143 691T157 655Q157 633 143 619T107 605Q85 605 71 619Z" />
<glyph unicode="&#x2013;" glyph-name="endash" horiz-adv-x="370" d="M34 259T34 269V296Q34 306 44 306H325Q335 306 335 296V269Q335 259 325 259H44Q34 259 34 269Z" />
<glyph unicode="&#x2014;" glyph-name="emdash" horiz-adv-x="592" d="M34 259T34 269V296Q34 306 44 306H548Q558 306 558 296V269Q558 259 548 259H44Q34 259 34 269Z" />
<glyph unicode="&#x2018;" glyph-name="quoteleft" horiz-adv-x="107" d="M1 501T4 512L60 692Q63 700 72 700H95Q100 700 102 697T104 689L57 510Q55 501 46 501H12Q1 501 4 512Z" />
<glyph unicode="&#x2019;" glyph-name="quoteright" horiz-adv-x="107" d="M106 700T103 689L46 509Q43 501 34 501H11Q0 501 3 512L49 691Q51 700 60 700H95Q106 700 103 689Z" />
<glyph unicode="&#x201a;" glyph-name="quotesinglbase" horiz-adv-x="600" d="M46 -74T43 -71T41 -63L75 145Q77 154 85 154H113Q118 154 120 151T122 143L80 -65Q79 -74 69 -74H50Q46 -74 43 -71Z" />
<glyph unicode="&#x201c;" glyph-name="quotedblleft" horiz-adv-x="224" d="M1 501T4 512L67 692Q70 700 79 700H101Q106 700 108 697T110 689L56 509Q53 501 45 501H12Q1 501 4 512ZM113 501T116 512L178 692Q181 700 190 700H212Q217 700 219 697T221 689L169
509Q166 501 158 501H124Q113 501 116 512Z" />
<glyph unicode="&#x201d;" glyph-name="quotedblright" horiz-adv-x="224" d="M111 700T108 689L46 509Q43 501 34 501H12Q7 501 5 504T3 512L55 692Q58 700 66 700H100Q111 700 108 689ZM223 700T220 689L157 509Q154 501 145 501H124Q119 501 117 504T115 512L168
692Q171 700 179 700H212Q223 700 220 689Z" />
<glyph unicode="&#x201e;" glyph-name="quotedblbase" horiz-adv-x="209" d="M111 127T108 116L46 -64Q43 -72 34 -72H12Q7 -72 5 -69T3 -61L55 119Q58 127 66 127H100Q111 127 108 116ZM223 127T220 116L157 -64Q154 -72 145 -72H124Q119 -72 117 -69T115 -61L168
119Q171 127 179 127H212Q223 127 220 116Z" />
<glyph unicode="&#x2022;" glyph-name="bullet" horiz-adv-x="292" d="M101 153T68 186T34 265Q34 311 67 343T147 376Q192 376 225 344T258 265Q258 219 225 186T147 153Q101 153 68 186Z" />
<glyph unicode="&#x2039;" glyph-name="guilsinglleft" horiz-adv-x="313" d="M228 117T228 113Q228 111 226 109T220 107H191Q183 107 179 113L65 274Q61 281 65 288L179 449Q183 455 191 455H220Q226 455 228 452T226 443L113 284Q112 281 113 278L226 119Q228
117 228 113Z" />
<glyph unicode="&#x203a;" glyph-name="guilsinglright" horiz-adv-x="332" d="M88 107T86 110T88 119L200 278Q202 281 200 284L88 443Q86 445 86 449Q86 451 88 453T94 455H123Q131 455 135 449L248 288Q252 281 248 274L135 113Q131 107 123 107H94Q88 107 86 110Z" />
</font>
</defs>
</svg>
